<?xml version="1.0" encoding="UTF-8"?><svg xmlns="http://www.w3.org/2000/svg" width="100%" height="100%"><defs><font id="web" horiz-adv-x="1080"><!--



NOTICE: This font software is the valuable property 
of Monotype Imaging and/or its suppliers and its use 
by you is covered under the terms of the Web Font license 
agreement between you and Monotype Imaging. You may 
ONLY use this font software with the licensed web site. 
Except as specifically permitted by the license, you 
may not copy this font software. If you have any questions, 
please contact Monotype Imaging. 

For more information, please visit http://www.ascenderfonts.com/info/webfont-eula.aspx

Licensed to: microsoft.com

Serial number: SH-266
--><font-face font-family="" units-per-em="2048" panose-1="2 11 5 2 4 2 4 2 2 3" ascent="2210" descent="-514" alphabetic="0"/><missing-glyph horiz-adv-x="1322" d="M166 0V1398H1156V0H166ZM314 148H1008V1250H314V148Z"/><glyph unicode="&#13;" horiz-adv-x="199"/><glyph unicode=" " horiz-adv-x="561"/><glyph unicode="!" horiz-adv-x="582" d="M332 403H246L236 1434H342L332 403ZM291 -18Q257 -18 234 5T211 63Q211 98 234 120T291 143Q325 143 349 121T373 63Q373 29 349 6T291 -18Z"/><glyph unicode="&quot;" horiz-adv-x="686" d="M511 985H425V1434H511V985ZM263 985H177V1434H263V985Z"/><glyph unicode="#" horiz-adv-x="1237" d="M1128 946H856L780 600H1065L1047 522H764L678 123H598L684 522H416L330 123H250L336 522H53L72 600H352L428 946H135L154 1024H444L532 1434H612L524 1024H793L881 1434H961L872 1024H1147L1128 946ZM508 946L432 600H700L776 946H508Z"/><glyph unicode="$" horiz-adv-x="1055" d="M567 4V-209H489V0Q301 0 162 80V182Q314 84 489 84V682Q292 795 227 876T162 1071Q162 1207 250 1308T489 1432V1614H567V1434Q719 1434 827 1391V1288Q724 1348 567 1348V741Q751 640 822 556T893 356Q893 216 808 121T567 4ZM489 1346Q382 1329 320 1258T258 1083Q258 995 304 931T489 786V1346ZM567 635V86Q681 106 739 173T797 338Q797 430 749 494T567 635Z"/><glyph unicode="%" horiz-adv-x="1606" d="M414 729Q260 729 171 830T82 1092Q82 1267 176 1364T424 1462Q574 1462 662 1365T750 1094Q750 938 659 834T414 729ZM422 1380Q307 1380 241 1304T174 1090Q174 961 238 885T416 809Q530 809 594 887T659 1096Q659 1237 595 1308T422 1380ZM416 -33H317L1180 1432H1276L416 -33ZM1198 -25Q1045 -25 956 76T866 338Q866 515 962 612T1208 709Q1358 709 1446 611T1534 340Q1534 184 1443 80T1198 -25ZM1206 627Q1092 627 1025 549T958 336Q958 207 1022 131T1200 55Q1315 55 1379 132T1444 342Q1444 483 1380 555T1206 627Z"/><glyph unicode="&amp;" horiz-adv-x="1427" d="M1260 0L1067 188Q866 -25 588 -25Q377 -25 259 83T141 360Q141 636 473 784Q311 971 311 1126Q311 1265 409 1361T664 1458Q807 1458 889 1377T971 1169Q971 1032 888 936T627 758Q777 599 1067 324Q1192 510 1200 758H1296Q1289 491 1130 260Q1301 92 1403 -2L1260 0ZM563 823Q737 900 805 977T874 1157Q874 1256 811 1315T655 1374Q542 1374 475 1302T408 1124Q408 996 563 823ZM1006 250Q674 571 537 719Q238 589 238 367Q238 232 333 146T596 59Q825 59 1006 250Z"/><glyph unicode="'" horiz-adv-x="438" d="M263 985H177V1434H263V985Z"/><glyph unicode="(" horiz-adv-x="578" d="M453 -326Q150 28 150 545Q150 1085 457 1434H555Q242 1074 242 547Q242 50 551 -326H453Z"/><glyph unicode=")" horiz-adv-x="578" d="M125 -326H27Q336 50 336 547Q336 1074 23 1434H121Q428 1083 428 545Q428 26 125 -326Z"/><glyph unicode="*" horiz-adv-x="831" d="M469 1051L668 784L592 733L418 1010L240 733L166 784L365 1051L70 1126L96 1212L385 1110L369 1434H463L449 1110L735 1212L762 1126L469 1051Z"/><glyph unicode="+" horiz-adv-x="1331" d="M709 555V143H625V555H213V639H625V1051H709V639H1120V555H709Z"/><glyph unicode="," horiz-adv-x="455" d="M125 -248H47L197 227H299L125 -248Z"/><glyph unicode="-" horiz-adv-x="815" d="M145 555V645H692V555H145Z"/><glyph unicode="." horiz-adv-x="455" d="M227 -18Q193 -18 170 5T147 63Q147 98 170 120T227 143Q261 143 285 121T309 63Q309 29 285 6T227 -18Z"/><glyph unicode="/" horiz-adv-x="750" d="M63 -238H-29L664 1434H760L63 -238Z"/><glyph unicode="0" horiz-adv-x="1055" d="M516 -25Q318 -25 206 157T94 686Q94 1069 211 1263T547 1458Q961 1458 961 723Q961 357 844 166T516 -25ZM539 1374Q374 1374 282 1205T190 698Q190 390 278 225T528 59Q687 59 775 227T864 709Q864 1374 539 1374Z"/><glyph unicode="1" horiz-adv-x="1055" d="M170 0V84H498V1364L147 1239V1331L590 1485V84H913V0H170Z"/><glyph unicode="2" horiz-adv-x="1055" d="M82 0V98L473 514Q682 737 747 843T813 1079Q813 1219 735 1296T514 1374Q324 1374 156 1225V1333Q320 1458 526 1458Q710 1458 809 1359T909 1094Q909 946 838 826T535 459L184 88V84H901V0H82Z"/><glyph unicode="3" horiz-adv-x="1055" d="M115 51V156Q279 59 424 59Q597 59 695 147T793 379Q793 538 681 620T360 702H250V786H348Q540 786 640 867T741 1098Q741 1227 668 1300T455 1374Q320 1374 172 1280V1378Q334 1458 469 1458Q639 1458 738 1366T838 1122Q838 831 559 752V748Q709 733 799 637T889 393Q889 205 759 90T422 -25Q262 -25 115 51Z"/><glyph unicode="4" horiz-adv-x="1055" d="M782 406V0H690V406H29V483L690 1434H782V489H973V406H782ZM690 1169Q690 1250 694 1298H690Q663 1248 639 1212L137 489H690V1169Z"/><glyph unicode="5" horiz-adv-x="1055" d="M156 29V135Q294 59 430 59Q607 59 706 156T805 414Q805 764 406 764Q316 764 195 752V1434H840V1350H287V840Q395 848 440 848Q667 848 784 737T901 426Q901 225 777 100T422 -25Q267 -25 156 29Z"/><glyph unicode="6" horiz-adv-x="1055" d="M889 1423V1325Q786 1374 678 1374Q466 1374 342 1174T217 649H221Q326 897 580 897Q756 897 863 771T971 455Q971 244 851 110T543 -25Q346 -25 235 142T123 629Q123 1008 269 1233T680 1458Q799 1458 889 1423ZM559 813Q416 813 323 706T229 469Q229 301 318 180T551 59Q689 59 781 165T874 436Q874 605 790 709T559 813Z"/><glyph unicode="7" horiz-adv-x="1055" d="M379 0H279L836 1350H90V1434H954V1409L379 0Z"/><glyph unicode="8" horiz-adv-x="1055" d="M430 745V750Q158 881 158 1110Q158 1259 267 1358T549 1458Q706 1458 804 1367T903 1133Q903 889 614 754V750Q950 628 950 352Q950 185 833 80T500 -25Q324 -25 217 76T109 338Q109 609 430 745ZM526 797Q807 908 807 1122Q807 1241 732 1307T535 1374Q417 1374 336 1302T254 1124Q254 910 526 797ZM518 700Q351 632 278 550T205 342Q205 219 293 139T530 59Q682 59 768 139T854 340Q854 473 772 557T518 700Z"/><glyph unicode="9" horiz-adv-x="1055" d="M178 12V113Q293 59 389 59Q616 59 735 240T854 776H850Q751 545 498 545Q322 545 212 668T102 985Q102 1197 224 1327T535 1458Q727 1458 838 1296T950 809Q950 407 806 191T387 -25Q281 -25 178 12ZM522 1374Q381 1374 290 1269T199 1004Q199 830 288 730T520 629Q652 629 747 725T842 956Q842 1141 753 1257T522 1374Z"/><glyph unicode=":" horiz-adv-x="455" d="M227 881Q193 881 170 905T147 963Q147 997 170 1019T227 1042Q261 1042 285 1020T309 963Q309 929 285 905T227 881ZM227 -18Q193 -18 170 5T147 63Q147 98 170 120T227 143Q261 143 285 121T309 63Q309 29 285 6T227 -18Z"/><glyph unicode=";" horiz-adv-x="455" d="M236 881Q201 881 179 905T156 963Q156 997 178 1019T236 1042Q270 1042 293 1020T317 963Q317 929 294 905T236 881ZM125 -248H47L197 227H299L125 -248Z"/><glyph unicode="&lt;" horiz-adv-x="1331" d="M250 580V598L1083 1065V971L406 592V588L1083 254V158L250 580Z"/><glyph unicode="=" horiz-adv-x="1331" d="M213 750V834H1120V750H213ZM213 362V446H1120V362H213Z"/><glyph unicode="&gt;" horiz-adv-x="1331" d="M250 158V254L928 588V592L250 971V1065L1083 598V580L250 158Z"/><glyph unicode="?" horiz-adv-x="881" d="M377 398Q367 423 360 463T352 544Q352 591 364 629T399 702T453 768T523 833Q555 862 586 893T641 961T679 1039T694 1133Q694 1188 676 1231T624 1305T545 1352T442 1368Q348 1368 269 1335T119 1245V1352Q190 1406 268 1432T443 1458Q517 1458 580 1437T690 1376T763 1277T790 1143Q790 1086 774 1039T733 952T674 877T607 809Q554 759 521 725T468 662T442 608T434 545Q434 499 442 462T458 398H377ZM412 -18Q378 -18 356 5T333 63Q333 98 355 120T412 143Q447 143 470 121T494 63Q494 29 471 6T412 -18Z"/><glyph unicode="@" horiz-adv-x="1933" d="M1153 426H1149Q1059 188 856 188Q716 188 635 288T553 557Q553 784 667 935T967 1087Q1045 1087 1104 1047T1182 954H1186Q1190 1015 1196 1073H1284L1233 489Q1233 272 1386 272Q1510 272 1590 397T1671 719Q1671 1018 1490 1196T983 1374Q665 1374 465 1156T264 616Q264 289 455 93T975 -104Q1224 -104 1401 -16V-109Q1205 -188 965 -188Q604 -188 386 35T168 616Q168 975 403 1216T993 1458Q1344 1458 1555 1252T1767 729Q1767 492 1660 340T1391 188Q1169 188 1153 426ZM963 1004Q819 1004 734 884T649 565Q649 430 706 351T866 272Q1002 272 1082 411T1163 766Q1163 883 1110 943T963 1004Z"/><glyph unicode="A" horiz-adv-x="1288" d="M1118 0L954 446H332L168 0H59L600 1434H694L1229 0H1118ZM678 1200Q667 1230 660 1259Q653 1284 645 1309H641Q624 1243 608 1202L367 537H920L678 1200Z"/><glyph unicode="B" horiz-adv-x="1114" d="M184 0V1434H561Q730 1434 830 1343T930 1102Q930 977 864 886T678 756V752Q827 738 913 646T999 410Q999 229 882 115T569 0H184ZM283 1343V788H483Q639 788 733 868T827 1085Q827 1343 522 1343H283ZM283 698V90H549Q718 90 807 171T897 401Q897 698 494 698H283Z"/><glyph unicode="C" horiz-adv-x="1272" d="M1137 47Q963 -25 774 -25Q480 -25 295 172T109 688Q109 1037 310 1247T821 1458Q986 1458 1137 1405V1300Q986 1368 819 1368Q549 1368 380 1185T211 698Q211 405 372 236T782 66Q980 66 1137 143V47Z"/><glyph unicode="D" horiz-adv-x="1380" d="M184 0V1434H543Q900 1434 1086 1256T1272 737Q1272 409 1073 205T522 0H184ZM283 1343V90H508Q827 90 998 255T1169 733Q1169 1343 528 1343H283Z"/><glyph unicode="E" horiz-adv-x="1024" d="M184 0V1434H854V1343H283V768H813V678H283V90H887V0H184Z"/><glyph unicode="F" horiz-adv-x="952" d="M283 1343V758H813V668H283V0H184V1434H854V1343H283Z"/><glyph unicode="G" horiz-adv-x="1368" d="M1221 100Q999 -25 764 -25Q471 -25 290 174T109 696Q109 1022 304 1240T825 1458Q1014 1458 1192 1382V1274Q997 1368 811 1368Q540 1368 376 1183T211 711Q211 409 365 238T782 66Q976 66 1122 150V623H784V713H1221V100Z"/><glyph unicode="H" horiz-adv-x="1386" d="M1104 0V688H283V0H184V1434H283V778H1104V1434H1202V0H1104Z"/><glyph unicode="I" horiz-adv-x="463" d="M421 1434V1344H281V90H421V0H42V90H182V1344H42V1434H421Z"/><glyph unicode="J" horiz-adv-x="664" d="M487 494Q487 -25 127 -25Q71 -25 18 -10V86Q77 66 129 66Q267 66 328 170T389 496V1434H487V494Z"/><glyph unicode="K" horiz-adv-x="1079" d="M922 0L311 686Q294 705 287 719H283V0H184V1434H283V758H287Q299 779 313 793L893 1434H1022L393 739L1061 0H922Z"/><glyph unicode="L" horiz-adv-x="938" d="M184 0V1434H283V90H858V0H184Z"/><glyph unicode="M" horiz-adv-x="1706" d="M1427 0V1018Q1427 1055 1438 1229H1434Q1403 1148 1382 1104L872 0H840L328 1098Q303 1151 281 1233H276Q283 1137 283 1042V0H184V1434H276L811 279Q816 269 822 252Q828 235 835 218Q845 192 856 160H862L873 192Q874 196 907 287L1434 1434H1522V0H1427Z"/><glyph unicode="N" horiz-adv-x="1452" d="M1198 0L344 1159Q318 1194 298 1229L285 1249H281Q283 1223 283 1186V0H184V1434H260L1108 285Q1136 247 1169 193H1174Q1169 263 1169 313V1434H1268V0H1198Z"/><glyph unicode="O" horiz-adv-x="1559" d="M774 -25Q470 -25 290 177T109 702Q109 1045 294 1251T801 1458Q1091 1458 1270 1260T1450 739Q1450 383 1266 179T774 -25ZM784 1368Q534 1368 373 1187T211 713Q211 417 364 242T772 66Q1038 66 1193 239T1348 723Q1348 1027 1197 1197T784 1368Z"/><glyph unicode="P" horiz-adv-x="1114" d="M283 575V0H184V1434H530Q751 1434 868 1332T985 1032Q985 832 855 704T489 575H283ZM283 1343V666H487Q681 666 782 758T883 1020Q883 1343 512 1343H283Z"/><glyph unicode="Q" horiz-adv-x="1544" d="M756 -24Q616 -24 495 26T283 177Q102 376 102 700Q102 1047 286 1252Q471 1458 794 1458Q1083 1458 1263 1258Q1443 1058 1443 735Q1443 596 1409 469T1305 240T1126 70T867 -18Q930 -85 985 -136T1095 -223T1209 -277T1340 -295Q1356 -295 1375 -294T1413 -289T1451 -281T1484 -270V-364Q1457 -374 1414 -381T1330 -388Q1234 -388 1158 -360T1015 -282T886 -166T756 -24ZM778 1368Q523 1368 363 1188Q283 1097 244 980T204 715Q204 425 359 244Q516 66 766 66Q1033 66 1187 236Q1341 406 1341 712Q1341 1026 1191 1197Q1041 1368 778 1368Z"/><glyph unicode="R" horiz-adv-x="1137" d="M918 0L727 420Q668 550 609 594T461 639H283V0H184V1434H582Q772 1434 880 1332T989 1061Q989 906 900 802T651 668V664Q736 630 817 457L1030 0H918ZM283 1343V729H530Q694 729 790 815T887 1051Q887 1188 800 1265T551 1343H283Z"/><glyph unicode="S" horiz-adv-x="1018" d="M139 51V164Q293 66 451 66Q619 66 706 135T793 330Q793 440 735 505T481 684Q263 811 205 896T147 1094Q147 1246 265 1352T580 1458Q708 1458 836 1415V1311Q710 1368 567 1368Q421 1368 336 1294T250 1106Q250 996 308 931T561 754Q762 640 828 552T895 348Q895 183 781 79T457 -25Q383 -25 287 -2T139 51Z"/><glyph unicode="T" horiz-adv-x="1047" d="M573 1343V0H475V1343H61V1434H987V1343H573Z"/><glyph unicode="U" horiz-adv-x="1327" d="M1161 573Q1161 -25 651 -25Q166 -25 166 551V1434H264V565Q264 66 670 66Q1063 66 1063 551V1434H1161V573Z"/><glyph unicode="V" horiz-adv-x="1237" d="M639 0H565L41 1434H152L567 279Q593 207 604 143H608Q618 194 649 281L1090 1434H1196L639 0Z"/><glyph unicode="W" horiz-adv-x="1833" d="M1362 0H1280L961 1079Q937 1162 934 1214H930Q927 1170 899 1081L559 0H477L51 1434H162L489 285Q511 207 520 158H524Q530 195 559 285L913 1434H963L1288 285Q1311 205 1319 158H1323Q1328 186 1339 222L1675 1434H1782L1362 0Z"/><glyph unicode="X" horiz-adv-x="1153" d="M961 0L631 547Q600 598 578 647H573Q546 592 516 547L180 0H61L514 723L88 1434H207L528 895Q553 853 580 799H584L637 895L956 1434H1071L641 725L1081 0H961Z"/><glyph unicode="Y" horiz-adv-x="1106" d="M598 545V0H500V543L61 1434H172L506 743Q524 707 551 637H555Q569 674 604 741L954 1434H1061L598 545Z"/><glyph unicode="Z" horiz-adv-x="1167" d="M215 90H1073V0H66V31L934 1343H135V1434H1087V1407L215 90Z"/><glyph unicode="[" horiz-adv-x="578" d="M209 -326V1434H526V1350H301V-242H526V-326H209Z"/><glyph unicode="\" horiz-adv-x="750" d="M668 -238L-29 1434H68L760 -238H668Z"/><glyph unicode="]" horiz-adv-x="578" d="M51 -326V-242H276V1350H51V1434H369V-326H51Z"/><glyph unicode="^" horiz-adv-x="1331" d="M975 702L668 1315H664L356 702H260L645 1458H686L1071 702H975Z"/><glyph unicode="_" horiz-adv-x="850" d="M0 -268V-178H850V-268H0Z"/><glyph unicode="`" horiz-adv-x="508" d="M324 1188L76 1516H180L414 1188H324Z"/><glyph unicode="a" horiz-adv-x="1012" d="M776 0V205H772Q723 100 630 38T422 -25Q276 -25 191 57T106 264Q106 532 461 588L776 635Q776 965 528 965Q359 965 199 829V940Q256 985 353 1017T537 1049Q695 1049 781 951T868 666V0H776ZM494 510Q333 487 268 436T203 268Q203 177 263 118T432 59Q580 59 678 168T776 451V551L494 510Z"/><glyph unicode="b" horiz-adv-x="1147" d="M260 182H256V0H164V1516H256V813H260Q315 926 417 987T643 1049Q838 1049 947 915T1057 549Q1057 292 930 134T600 -25Q370 -25 260 182ZM256 563V434Q256 280 353 170T608 59Q765 59 863 193T961 547Q961 739 871 852T631 965Q452 965 354 845T256 563Z"/><glyph unicode="c" horiz-adv-x="909" d="M827 45Q713 -25 555 -25Q346 -25 218 118T90 494Q90 738 234 893T604 1049Q721 1049 831 1001V897Q721 965 590 965Q410 965 298 836T186 500Q186 301 288 180T559 59Q713 59 827 141V45Z"/><glyph unicode="d" horiz-adv-x="1147" d="M891 0V186H887Q837 89 739 32T518 -25Q329 -25 210 113T90 494Q90 742 220 895T559 1049Q789 1049 887 860H891V1516H983V0H891ZM891 623Q891 766 801 865T557 965Q396 965 291 842T186 502Q186 290 280 175T524 59Q699 59 795 167T891 432V623Z"/><glyph unicode="e" horiz-adv-x="1034" d="M186 508Q186 297 283 178T551 59Q723 59 887 186V88Q728 -25 532 -25Q334 -25 212 117T90 518Q90 742 217 895T549 1049Q740 1049 842 915T944 549V508H186ZM848 592Q842 769 763 867T545 965Q401 965 307 869T190 592H848Z"/><glyph unicode="f" horiz-adv-x="565" d="M612 1419Q575 1448 500 1448Q311 1448 311 1194V1024H582V940H311V0H219V940H35V1024H219V1202Q219 1364 300 1448T504 1532Q569 1532 612 1513V1419Z"/><glyph unicode="g" horiz-adv-x="1147" d="M983 76Q983 -213 857 -347T465 -481Q317 -481 160 -403V-307Q322 -397 467 -397Q891 -397 891 51V184H887Q766 -25 518 -25Q329 -25 210 112T90 494Q90 739 219 894T559 1049Q785 1049 887 862H891V1024H983V76ZM891 631Q891 767 800 866T561 965Q392 965 289 838T186 502Q186 292 280 176T530 59Q695 59 793 166T891 428V631Z"/><glyph unicode="h" horiz-adv-x="1096" d="M860 0V614Q860 796 794 880T588 965Q456 965 356 862T256 567V0H164V1516H256V840H260Q381 1049 612 1049Q778 1049 865 942T952 635V0H860Z"/><glyph unicode="i" horiz-adv-x="420" d="M209 1282Q179 1282 156 1304T133 1360Q133 1393 156 1413T209 1434Q240 1434 263 1414T287 1360Q287 1328 264 1305T209 1282ZM164 0V1024H256V0H164Z"/><glyph unicode="j" horiz-adv-x="420" d="M209 1282Q179 1282 156 1304T133 1360Q133 1393 156 1413T209 1434Q240 1434 263 1414T287 1360Q287 1328 264 1305T209 1282ZM256 29Q256 -481 -106 -481Q-178 -481 -252 -446V-350Q-172 -397 -96 -397Q164 -397 164 12V1024H256V29Z"/><glyph unicode="k" horiz-adv-x="909" d="M750 0L260 506H256V0H164V1516H256V539H260L725 1024H844L358 528L883 0H750Z"/><glyph unicode="l" horiz-adv-x="420" d="M164 0V1516H256V0H164Z"/><glyph unicode="m" horiz-adv-x="1683" d="M1448 0V616Q1448 809 1388 887T1196 965Q1075 965 987 861T899 600V0H807V623Q807 965 547 965Q422 965 339 861T256 590V0H164V1024H256V854H260Q367 1049 573 1049Q685 1049 764 985T872 815Q920 926 1009 987T1204 1049Q1540 1049 1540 633V0H1448Z"/><glyph unicode="n" horiz-adv-x="1096" d="M860 0V596Q860 965 594 965Q446 965 351 857T256 588V0H164V1024H256V838H260Q372 1049 610 1049Q776 1049 864 939T952 623V0H860Z"/><glyph unicode="o" horiz-adv-x="1149" d="M575 -25Q351 -25 221 122T90 506Q90 761 226 905T586 1049Q805 1049 932 906T1059 510Q1059 271 930 123T575 -25ZM582 965Q401 965 294 843T186 504Q186 303 291 181T578 59Q763 59 863 179T963 512Q963 731 864 848T582 965Z"/><glyph unicode="p" horiz-adv-x="1147" d="M260 182H256V-471H164V1024H256V813H260Q315 926 417 987T643 1049Q838 1049 947 915T1057 549Q1057 292 932 134T600 -25Q370 -25 260 182ZM256 563V434Q256 280 353 170T608 59Q765 59 863 193T961 547Q961 739 871 852T631 965Q452 965 354 845T256 563Z"/><glyph unicode="q" horiz-adv-x="1147" d="M891 -471V188H887Q773 -25 516 -25Q324 -25 207 116T90 496Q90 751 223 900T561 1049Q790 1049 887 858H891V1024H983V-471H891ZM891 614Q891 767 802 866T555 965Q396 965 291 843T186 500Q186 294 279 177T522 59Q701 59 796 169T891 438V614Z"/><glyph unicode="r" horiz-adv-x="676" d="M647 928Q601 961 539 961Q418 961 336 836T254 481V0H164V1024H254V797H258Q293 914 369 979T545 1044Q602 1044 647 1026V928Z"/><glyph unicode="s" horiz-adv-x="795" d="M111 45V156Q163 111 237 85T365 59Q606 59 606 256Q606 324 553 372T381 471Q234 535 175 603T115 770Q115 895 210 972T446 1049Q578 1049 672 995V891Q558 965 436 965Q335 965 273 913T211 776Q211 703 250 658T422 553Q582 481 642 420T702 256Q702 134 611 55T358 -25Q210 -25 111 45Z"/><glyph unicode="t" horiz-adv-x="608" d="M569 14Q497 -20 434 -20Q207 -20 207 252V940H23V1024H207V1290Q229 1298 253 1306Q277 1313 299 1321V1024H569V940H299V264Q299 158 332 111T446 63Q503 63 569 100V14Z"/><glyph unicode="u" horiz-adv-x="1096" d="M840 0V186H836Q729 -25 506 -25Q143 -25 143 432V1024H236V455Q236 247 304 153T520 59Q663 59 751 164T840 444V1024H932V0H840Z"/><glyph unicode="v" horiz-adv-x="928" d="M500 0H416L20 1024H123L428 209Q450 150 459 102H463Q476 165 492 205L807 1024H907L500 0Z"/><glyph unicode="w" horiz-adv-x="1386" d="M1032 0H946L723 772Q714 804 707 858H702Q700 835 682 774L432 0H346L37 1024H139L377 207Q386 175 391 121H399Q401 150 418 207L678 1024H741L973 207Q981 178 987 121H995Q995 150 1012 207L1255 1024H1350L1032 0Z"/><glyph unicode="x" horiz-adv-x="862" d="M481 502L815 0H698L428 432H424L388 375Q381 363 371 348L145 0H33L375 500L39 1024H147L375 657Q419 586 428 569H432L483 653L721 1024H829L481 502Z"/><glyph unicode="y" horiz-adv-x="928" d="M414 -209Q358 -347 290 -414T115 -481Q70 -481 35 -467V-375Q71 -389 119 -389Q242 -389 313 -219L408 8L20 1024H123L432 190Q442 163 446 149Q450 130 455 115H459L483 184L813 1024H913L414 -209Z"/><glyph unicode="z" horiz-adv-x="950" d="M207 84H868V0H57V35L737 940H106V1024H893V999L207 84Z"/><glyph unicode="{" horiz-adv-x="578" d="M506 -326Q379 -321 315 -254T250 -35V262Q250 499 94 522V586Q250 608 250 829V1143Q250 1295 314 1362T506 1434V1350Q418 1345 382 1293T346 1114V821Q346 599 201 555V551Q346 505 346 270V-6Q346 -133 382 -185T506 -242V-326Z"/><glyph unicode="|" horiz-adv-x="463" d="M184 -481V1567H279V-481H184Z"/><glyph unicode="}" horiz-adv-x="578" d="M483 522Q328 499 328 262V-35Q328 -188 264 -254T72 -326V-242Q154 -237 192 -189T231 -6V270Q231 505 377 551V555Q231 600 231 821V1114Q231 1249 193 1297T72 1350V1434Q199 1429 263 1363T328 1143V829Q328 608 483 586V522Z"/><glyph unicode="~" horiz-adv-x="1331" d="M1087 711Q1080 597 1019 533T854 469Q759 469 653 553Q548 637 477 637Q336 637 324 479H246Q252 592 314 656T479 721Q574 721 674 641Q744 586 779 569T858 551Q991 551 1010 711H1087Z"/><glyph unicode=" " horiz-adv-x="561"/><glyph unicode="¡" horiz-adv-x="582" d="M293 881Q259 881 235 903T211 961Q211 995 235 1018T293 1042Q327 1042 350 1019T373 961Q373 926 350 904T293 881ZM242 -408L252 623H338L348 -408H242Z"/><glyph unicode="¢" horiz-adv-x="1055" d="M903 209Q812 153 682 141V-57H590V141Q396 158 281 298T166 657Q166 872 280 1022T590 1206V1405H682V1212Q800 1212 907 1165V1061Q803 1124 682 1128V225Q812 235 903 305V209ZM590 1122Q437 1093 350 969T262 664Q262 481 349 364T590 225V1122Z"/><glyph unicode="£" horiz-adv-x="1055" d="M80 0V86Q328 189 328 451V662H100V752H328V1042Q328 1230 427 1344T690 1458Q786 1458 872 1423V1329Q782 1374 686 1374Q561 1374 491 1286T420 1030V752H727V662H420V485Q420 190 207 84H948V0H80Z"/><glyph unicode="¤" horiz-adv-x="1139" d="M946 293L811 428Q706 342 569 342Q429 342 328 428L193 293L133 354L270 485Q186 601 186 725Q186 865 270 965L133 1098L193 1159L328 1024Q441 1108 569 1108Q706 1108 809 1024L946 1159L1006 1098L868 965Q952 864 952 725Q952 593 868 485L1006 354L946 293ZM571 1024Q443 1024 357 936T270 727Q270 606 359 516T569 426Q691 426 779 515T868 727Q868 853 778 938T571 1024Z"/><glyph unicode="¥" horiz-adv-x="1055" d="M602 745H946V662H573V416H946V332H573V0H481V332H109V416H481V662H109V745H451L74 1434H176L483 862Q520 794 530 766H535Q555 832 578 866L889 1434H985L602 745Z"/><glyph unicode="¦" horiz-adv-x="463" d="M184 715V1567H279V715H184ZM184 -481V371H279V-481H184Z"/><glyph unicode="§" horiz-adv-x="918" d="M618 403Q713 332 713 203Q713 89 624 12T393 -66Q286 -66 176 -16V82Q294 18 395 18Q504 18 560 68T616 201Q616 255 586 303T445 404Q268 488 217 564T166 737Q166 909 328 993Q205 1076 205 1212Q205 1337 287 1414T514 1491Q624 1491 709 1454V1358Q623 1407 512 1407Q301 1407 301 1219Q301 1139 356 1087T569 965Q772 871 772 686Q772 524 618 403ZM406 946Q262 881 262 743Q262 645 321 588T545 457Q614 508 645 557T676 686Q676 763 628 816T406 946Z"/><glyph unicode="¨" horiz-adv-x="817" d="M575 1188Q548 1188 526 1207T504 1260Q504 1291 525 1310T573 1329Q602 1329 625 1310T649 1260Q649 1229 628 1209T575 1188ZM242 1188Q214 1188 192 1207T170 1260Q170 1291 192 1310T240 1329Q269 1329 292 1310T315 1260Q315 1229 294 1209T242 1188Z"/><glyph unicode="©" horiz-adv-x="1804" d="M903 -25Q592 -25 374 191T156 715Q156 1025 375 1241T901 1458Q1209 1458 1429 1241T1649 717Q1649 409 1431 192T903 -25ZM901 1382Q629 1382 433 1186T236 715Q236 442 431 247T901 51Q1178 51 1373 247T1569 715Q1569 990 1373 1186T901 1382ZM1182 270Q1059 199 932 199Q723 199 580 340T436 690Q436 936 581 1080T948 1225Q1075 1225 1178 1171V1085Q1072 1143 932 1143Q762 1143 645 1026T528 711Q528 519 649 401T942 283Q1072 283 1182 350V270Z"/><glyph unicode="ª" horiz-adv-x="745" d="M557 717V860H553Q516 785 447 743T299 700Q194 700 135 759T76 903Q76 1103 332 1139L557 1171Q557 1374 391 1374Q257 1374 137 1282V1378Q266 1454 399 1454Q647 1454 647 1180V717H557ZM369 1069Q255 1053 212 1019T168 907Q168 850 207 815T317 780Q413 780 485 863T557 1051V1096L369 1069Z"/><glyph unicode="«" horiz-adv-x="952" d="M717 201L440 537L717 881H831L549 537L829 201H717ZM399 201L123 537L399 881H512L231 537L512 201H399Z"/><glyph unicode="¬" horiz-adv-x="1331" d="M1034 147V555H213V639H1120V147H1034Z"/><glyph unicode="­" horiz-adv-x="815" d="M145 555V645H692V555H145Z"/><glyph unicode="®" horiz-adv-x="1804" d="M903 -25Q592 -25 374 191T156 715Q156 1025 375 1241T901 1458Q1209 1458 1429 1241T1649 717Q1649 409 1431 192T903 -25ZM901 1382Q629 1382 433 1186T236 715Q236 442 431 247T901 51Q1178 51 1373 247T1569 715Q1569 990 1373 1186T901 1382ZM1155 242L1040 489Q990 596 943 633T838 670H721V242H629V1208H893Q1052 1208 1138 1139T1225 954Q1225 732 973 686V682Q1057 665 1133 508L1260 242H1155ZM721 1137V741H915Q1013 741 1071 795T1130 938Q1130 1137 891 1137H721Z"/><glyph unicode="¯" horiz-adv-x="850" d="M0 1641V1731H850V1641H0Z"/><glyph unicode="°" horiz-adv-x="791" d="M397 930Q293 930 218 1005T143 1184Q143 1286 216 1360T393 1434Q498 1434 572 1361T647 1184Q647 1079 574 1005T397 930ZM397 1358Q326 1358 276 1307T225 1184Q225 1111 274 1059T393 1006Q463 1006 513 1058T563 1184Q563 1258 515 1308T397 1358Z"/><glyph unicode="±" horiz-adv-x="1331" d="M709 633V221H625V633H213V717H625V1128H709V717H1120V633H709ZM213 0V84H1120V0H213Z"/><glyph unicode="²" horiz-adv-x="674" d="M596 884H78V984L317 1218Q378 1277 414 1320T470 1397T496 1459T502 1519Q502 1672 344 1672Q235 1672 123 1574V1676Q179 1714 235 1734T350 1754Q407 1754 452 1738T528 1693T577 1622T594 1531Q594 1492 585 1454T551 1373T484 1279T375 1164L182 978V974H596V884Z"/><glyph unicode="³" horiz-adv-x="674" d="M561 1111Q561 1057 542 1011T487 932T399 879T281 859Q174 859 88 906V1002Q188 939 283 939Q374 939 424 986T475 1111Q475 1279 240 1279H170V1359H231Q446 1359 446 1531Q446 1668 293 1668Q222 1668 121 1615V1705Q170 1728 217 1739T311 1750Q363 1750 404 1735T475 1693T519 1627T535 1543Q535 1381 387 1328V1324Q472 1305 516 1247T561 1111Z"/><glyph unicode="´" horiz-adv-x="508" d="M227 1188H137L371 1516H475L227 1188Z"/><glyph unicode="µ" horiz-adv-x="1116" d="M860 0V186H856Q751 -25 526 -25Q350 -25 264 98H256V-391H164V1024H256V455Q256 245 325 152T541 59Q685 59 772 164T860 444V1024H952V0H860Z"/><glyph unicode="¶" horiz-adv-x="971" d="M733 1348V0H647V1348H449V0H362V903Q257 903 185 979T113 1167Q113 1288 188 1361T369 1434H864V1348H733Z"/><glyph unicode="·" horiz-adv-x="455" d="M227 625Q193 625 170 649T147 707Q147 741 170 763T227 786Q261 786 285 764T309 707Q309 673 285 649T227 625Z"/><glyph unicode="¸" horiz-adv-x="412" d="M57 -430V-356Q107 -362 143 -362Q303 -362 303 -270Q303 -184 158 -184Q126 -184 94 -188V0H166V-117Q391 -117 391 -264Q391 -434 137 -434Q101 -434 57 -430Z"/><glyph unicode="¹" horiz-adv-x="674" d="M600 884H129V966H324V1648L115 1578V1666L410 1760V966H600V884Z"/><glyph unicode="º" horiz-adv-x="811" d="M420 696Q262 696 167 802T72 1073Q72 1252 170 1353T426 1454Q584 1454 676 1353T768 1075Q768 912 674 804T420 696ZM424 1374Q307 1374 237 1293T166 1071Q166 938 236 858T422 778Q541 778 606 857T672 1077Q672 1216 607 1295T424 1374Z"/><glyph unicode="»" horiz-adv-x="952" d="M553 201H440L723 545L440 881H553L831 545L553 201ZM238 201H121L406 545L121 881H236L512 545L238 201Z"/><glyph unicode="¼" horiz-adv-x="1513" d="M600 584H129V666H324V1348L115 1278V1366L410 1460V666H600V584ZM430 0H332L1194 1434H1290L430 0ZM1358 219V0H1276V219H883V283L1268 850H1358V297H1468V219H1358ZM1274 741Q1241 680 1229 664L983 297H1276V666L1278 741H1274Z"/><glyph unicode="½" horiz-adv-x="1622" d="M600 584H129V666H324V1348L115 1278V1366L410 1460V666H600V584ZM430 0H332L1194 1434H1290L430 0ZM1542 0H1024V100L1264 334Q1324 393 1360 436T1416 513T1442 575T1448 635Q1448 788 1290 788Q1179 788 1069 690V793Q1181 870 1296 870Q1353 870 1398 854T1474 809T1523 738T1540 647Q1540 609 1531 571T1497 490T1430 396T1321 281L1128 94V90H1542V0Z"/><glyph unicode="¾" horiz-adv-x="1513" d="M561 811Q561 757 542 711T487 632T399 579T281 559Q174 559 88 606V702Q188 639 283 639Q374 639 424 686T475 811Q475 979 240 979H170V1059H231Q446 1059 446 1231Q446 1368 293 1368Q222 1368 121 1315V1405Q170 1428 217 1439T311 1450Q363 1450 404 1435T475 1393T519 1327T535 1243Q535 1081 387 1028V1024Q472 1005 516 947T561 811ZM430 0H332L1194 1434H1290L430 0ZM1358 219V0H1276V219H883V283L1268 850H1358V297H1468V219H1358ZM1274 741Q1241 680 1229 664L983 297H1276V666L1278 741H1274Z"/><glyph unicode="¿" horiz-adv-x="881" d="M557 626Q567 601 574 561T582 480Q582 433 570 395T535 322T481 256T411 191Q379 162 348 131T293 63T255 -15T240 -109Q240 -164 258 -207T310 -281T389 -328T492 -344Q586 -344 665 -311T815 -221V-328Q744 -382 666 -408T491 -434Q417 -434 354 -413T244 -352T171 -253T144 -119Q144 -62 160 -15T201 72T260 147T327 215Q379 265 413 299T466 362T492 416T500 479Q500 525 492 562T476 626H557ZM522 1042Q556 1042 578 1019T601 961Q601 926 579 904T522 881Q487 881 464 903T440 961Q440 995 463 1018T522 1042Z"/><glyph unicode="À" horiz-adv-x="1288" d="M1118 0L954 446H332L168 0H59L600 1434H694L1229 0H1118ZM678 1200Q667 1230 660 1259Q653 1284 645 1309H641Q624 1243 608 1202L367 537H920L678 1200ZM719 1536L471 1864H575L809 1536H719Z"/><glyph unicode="Á" horiz-adv-x="1288" d="M1118 0L954 446H332L168 0H59L600 1434H694L1229 0H1118ZM678 1200Q667 1230 660 1259Q653 1284 645 1309H641Q624 1243 608 1202L367 537H920L678 1200ZM564 1530H474L708 1858H812L564 1530Z"/><glyph unicode="Â" horiz-adv-x="1288" d="M1118 0L954 446H332L168 0H59L600 1434H694L1229 0H1118ZM678 1200Q667 1230 660 1259Q653 1284 645 1309H641Q624 1243 608 1202L367 537H920L678 1200ZM799 1535L642 1774L482 1535H400L621 1871H666L885 1535H799Z"/><glyph unicode="Ã" horiz-adv-x="1288" d="M1118 0L954 446H332L168 0H59L600 1434H694L1229 0H1118ZM678 1200Q667 1230 660 1259Q653 1284 645 1309H641Q624 1243 608 1202L367 537H920L678 1200ZM965 1768Q965 1665 917 1605T786 1545Q720 1545 635 1621Q571 1676 516 1676Q414 1676 414 1533H342Q342 1633 390 1693T518 1754Q590 1754 678 1682Q745 1623 795 1623Q835 1623 863 1660T891 1768H965Z"/><glyph unicode="Ä" horiz-adv-x="1288" d="M1118 0L954 446H332L168 0H59L600 1434H694L1229 0H1118ZM678 1200Q667 1230 660 1259Q653 1284 645 1309H641Q624 1243 608 1202L367 537H920L678 1200ZM812 1530Q785 1530 763 1549T741 1602Q741 1633 762 1652T810 1671Q839 1671 862 1652T886 1602Q886 1571 865 1551T812 1530ZM479 1530Q451 1530 429 1549T407 1602Q407 1633 429 1652T477 1671Q506 1671 529 1652T552 1602Q552 1571 531 1551T479 1530Z"/><glyph unicode="Å" horiz-adv-x="1288" d="M1118 0L954 446H332L168 0H59L578 1374Q444 1416 444 1550Q444 1631 503 1683T645 1735Q731 1735 788 1685T846 1550Q846 1421 715 1376L1229 0H1118ZM645 1667Q588 1667 553 1635T518 1550Q518 1498 554 1466T645 1434Q702 1434 738 1466T774 1550Q774 1607 737 1637T645 1667ZM678 1200Q667 1230 660 1259Q653 1284 645 1309H641Q624 1243 608 1202L367 537H920L678 1200Z"/><glyph unicode="Æ" horiz-adv-x="1706" d="M846 0V446H344L125 0H16L713 1434H1516V1337H944V766H1475V676H944V90H1548V0H846ZM846 1337H768L385 537H846V1337Z"/><glyph unicode="Ç" horiz-adv-x="1272" d="M1137 47Q921 -38 717 -23V-117Q942 -117 942 -264Q942 -434 688 -434Q652 -434 608 -430V-356Q658 -362 694 -362Q854 -362 854 -270Q854 -184 709 -184Q677 -184 645 -188V-14Q393 32 251 223T109 688Q109 1037 310 1247T821 1458Q986 1458 1137 1405V1300Q986 1368 819 1368Q549 1368 380 1185T211 698Q211 405 372 236T782 66Q980 66 1137 143V47Z"/><glyph unicode="È" horiz-adv-x="1024" d="M184 0V1434H854V1343H283V768H813V678H283V90H887V0H184ZM556 1536L308 1864H412L646 1536H556Z"/><glyph unicode="É" horiz-adv-x="1024" d="M184 0V1434H854V1343H283V768H813V678H283V90H887V0H184ZM506 1533H416L650 1861H754L506 1533Z"/><glyph unicode="Ê" horiz-adv-x="1024" d="M184 0V1434H854V1343H283V768H813V678H283V90H887V0H184ZM699 1537L542 1776L382 1537H300L521 1873H566L785 1537H699Z"/><glyph unicode="Ë" horiz-adv-x="1024" d="M184 0V1434H854V1343H283V768H813V678H283V90H887V0H184ZM714 1536Q687 1536 665 1555T643 1608Q643 1639 664 1658T712 1677Q741 1677 764 1658T788 1608Q788 1577 767 1557T714 1536ZM381 1536Q353 1536 331 1555T309 1608Q309 1639 331 1658T379 1677Q408 1677 431 1658T454 1608Q454 1577 433 1557T381 1536Z"/><glyph unicode="Ì" horiz-adv-x="463" d="M421 1434V1344H281V90H421V0H42V90H182V1344H42V1434H421ZM211 1536L-37 1864H67L301 1536H211Z"/><glyph unicode="Í" horiz-adv-x="463" d="M421 1434V1344H281V90H421V0H42V90H182V1344H42V1434H421ZM260 1536H170L404 1864H508L260 1536Z"/><glyph unicode="Î" horiz-adv-x="463" d="M421 1434V1344H281V90H421V0H42V90H182V1344H42V1434H421ZM389 1537L232 1776L72 1537H-10L211 1873H256L475 1537H389Z"/><glyph unicode="Ï" horiz-adv-x="463" d="M421 1434V1344H281V90H421V0H42V90H182V1344H42V1434H421ZM397 1536Q370 1536 348 1555T326 1608Q326 1639 347 1658T395 1677Q424 1677 447 1658T471 1608Q471 1577 450 1557T397 1536ZM64 1536Q36 1536 14 1555T-8 1608Q-8 1639 14 1658T62 1677Q91 1677 114 1658T137 1608Q137 1577 116 1557T64 1536Z"/><glyph unicode="Ð" horiz-adv-x="1380" d="M184 0V668H35V756H184V1434H543Q901 1434 1086 1257T1272 737Q1272 405 1071 203T522 0H184ZM283 1343V756H686V668H283V90H508Q826 90 997 255T1169 733Q1169 1343 528 1343H283Z"/><glyph unicode="Ñ" horiz-adv-x="1452" d="M1198 0L344 1159Q318 1194 298 1229L285 1249H281Q283 1223 283 1186V0H184V1434H260L1108 285Q1136 247 1169 193H1174Q1169 263 1169 313V1434H1268V0H1198ZM1101 1768Q1101 1665 1053 1605T922 1545Q856 1545 771 1621Q707 1676 652 1676Q550 1676 550 1533H478Q478 1633 526 1693T654 1754Q726 1754 814 1682Q881 1623 931 1623Q971 1623 999 1660T1027 1768H1101Z"/><glyph unicode="Ò" horiz-adv-x="1559" d="M774 -25Q470 -25 290 177T109 702Q109 1045 294 1251T801 1458Q1091 1458 1270 1260T1450 739Q1450 383 1266 179T774 -25ZM784 1368Q534 1368 373 1187T211 713Q211 417 364 242T772 66Q1038 66 1193 239T1348 723Q1348 1027 1197 1197T784 1368ZM866 1535L618 1863H722L956 1535H866Z"/><glyph unicode="Ó" horiz-adv-x="1559" d="M774 -25Q470 -25 290 177T109 702Q109 1045 294 1251T801 1458Q1091 1458 1270 1260T1450 739Q1450 383 1266 179T774 -25ZM784 1368Q534 1368 373 1187T211 713Q211 417 364 242T772 66Q1038 66 1193 239T1348 723Q1348 1027 1197 1197T784 1368ZM731 1536H641L875 1864H979L731 1536Z"/><glyph unicode="Ô" horiz-adv-x="1559" d="M774 -25Q470 -25 290 177T109 702Q109 1045 294 1251T801 1458Q1091 1458 1270 1260T1450 739Q1450 383 1266 179T774 -25ZM784 1368Q534 1368 373 1187T211 713Q211 417 364 242T772 66Q1038 66 1193 239T1348 723Q1348 1027 1197 1197T784 1368ZM935 1536L778 1775L618 1536H536L757 1872H802L1021 1536H935Z"/><glyph unicode="Õ" horiz-adv-x="1559" d="M774 -25Q470 -25 290 177T109 702Q109 1045 294 1251T801 1458Q1091 1458 1270 1260T1450 739Q1450 383 1266 179T774 -25ZM784 1368Q534 1368 373 1187T211 713Q211 417 364 242T772 66Q1038 66 1193 239T1348 723Q1348 1027 1197 1197T784 1368ZM1091 1767Q1091 1664 1043 1604T912 1544Q846 1544 761 1620Q697 1675 642 1675Q540 1675 540 1532H468Q468 1632 516 1692T644 1753Q716 1753 804 1681Q871 1622 921 1622Q961 1622 989 1659T1017 1767H1091Z"/><glyph unicode="Ö" horiz-adv-x="1559" d="M774 -25Q470 -25 290 177T109 702Q109 1045 294 1251T801 1458Q1091 1458 1270 1260T1450 739Q1450 383 1266 179T774 -25ZM784 1368Q534 1368 373 1187T211 713Q211 417 364 242T772 66Q1038 66 1193 239T1348 723Q1348 1027 1197 1197T784 1368ZM950 1533Q923 1533 901 1552T879 1605Q879 1636 900 1655T948 1674Q977 1674 1000 1655T1024 1605Q1024 1574 1003 1554T950 1533ZM617 1533Q589 1533 567 1552T545 1605Q545 1636 567 1655T615 1674Q644 1674 667 1655T690 1605Q690 1574 669 1554T617 1533Z"/><glyph unicode="×" horiz-adv-x="1331" d="M999 203L666 539L332 203L272 262L606 596L272 932L332 991L666 655L999 991L1059 932L725 596L1059 262L999 203Z"/><glyph unicode="Ø" horiz-adv-x="1559" d="M317 147L147 -55L84 -4L262 209Q109 409 109 702Q109 1045 294 1251T801 1458Q1036 1458 1200 1327L1339 1493L1403 1440L1262 1272Q1450 1071 1450 739Q1450 383 1266 179T774 -25Q500 -25 317 147ZM1139 1253Q995 1368 784 1368Q534 1368 373 1187T211 713Q211 455 328 287L1139 1253ZM1198 1196L381 223Q534 66 772 66Q1038 66 1193 239T1348 723Q1348 1021 1198 1196Z"/><glyph unicode="Ù" horiz-adv-x="1327" d="M1161 573Q1161 -25 651 -25Q166 -25 166 551V1434H264V565Q264 66 670 66Q1063 66 1063 551V1434H1161V573ZM683 1536L435 1864H539L773 1536H683Z"/><glyph unicode="Ú" horiz-adv-x="1327" d="M1161 573Q1161 -25 651 -25Q166 -25 166 551V1434H264V565Q264 66 670 66Q1063 66 1063 551V1434H1161V573ZM663 1535H573L807 1863H911L663 1535Z"/><glyph unicode="Û" horiz-adv-x="1327" d="M1161 573Q1161 -25 651 -25Q166 -25 166 551V1434H264V565Q264 66 670 66Q1063 66 1063 551V1434H1161V573ZM859 1537L702 1776L542 1537H460L681 1873H726L945 1537H859Z"/><glyph unicode="Ü" horiz-adv-x="1327" d="M1161 573Q1161 -25 651 -25Q166 -25 166 551V1434H264V565Q264 66 670 66Q1063 66 1063 551V1434H1161V573ZM860 1537Q833 1537 811 1556T789 1609Q789 1640 810 1659T858 1678Q887 1678 910 1659T934 1609Q934 1578 913 1558T860 1537ZM527 1537Q499 1537 477 1556T455 1609Q455 1640 477 1659T525 1678Q554 1678 577 1659T600 1609Q600 1578 579 1558T527 1537Z"/><glyph unicode="Ý" horiz-adv-x="1106" d="M598 545V0H500V543L61 1434H172L506 743Q524 707 551 637H555Q569 674 604 741L954 1434H1061L598 545ZM532 1567H442L676 1895H780L532 1567Z"/><glyph unicode="Þ" horiz-adv-x="1114" d="M283 338V0H184V1434H283V1196H530Q985 1196 985 793Q985 589 852 464T485 338H283ZM283 1106V428H487Q678 428 780 519T883 780Q883 1106 512 1106H283Z"/><glyph unicode="ß" horiz-adv-x="1061" d="M430 -6V88Q503 59 571 59Q712 59 795 147T879 381Q879 536 770 638T463 772V852Q770 922 770 1184Q770 1306 706 1377T526 1448Q398 1448 327 1357T256 1102V2H164V1116Q164 1312 265 1422T535 1532Q684 1532 775 1440T866 1198Q866 934 610 823V819Q780 774 877 658T975 387Q975 208 864 92T575 -25Q506 -25 430 -6Z"/><glyph unicode="à" horiz-adv-x="1012" d="M776 0V205H772Q723 100 630 38T422 -25Q276 -25 191 57T106 264Q106 532 461 588L776 635Q776 965 528 965Q359 965 199 829V940Q256 985 353 1017T537 1049Q695 1049 781 951T868 666V0H776ZM494 510Q333 487 268 436T203 268Q203 177 263 118T432 59Q580 59 678 168T776 451V551L494 510ZM519 1188L271 1516H375L609 1188H519Z"/><glyph unicode="á" horiz-adv-x="1012" d="M776 0V205H772Q723 100 630 38T422 -25Q276 -25 191 57T106 264Q106 532 461 588L776 635Q776 965 528 965Q359 965 199 829V940Q256 985 353 1017T537 1049Q695 1049 781 951T868 666V0H776ZM494 510Q333 487 268 436T203 268Q203 177 263 118T432 59Q580 59 678 168T776 451V551L494 510ZM452 1188H362L596 1516H700L452 1188Z"/><glyph unicode="â" horiz-adv-x="1012" d="M776 0V205H772Q723 100 630 38T422 -25Q276 -25 191 57T106 264Q106 532 461 588L776 635Q776 965 528 965Q359 965 199 829V940Q256 985 353 1017T537 1049Q695 1049 781 951T868 666V0H776ZM494 510Q333 487 268 436T203 268Q203 177 263 118T432 59Q580 59 678 168T776 451V551L494 510ZM670 1188L513 1427L353 1188H271L492 1524H537L756 1188H670Z"/><glyph unicode="ã" horiz-adv-x="1012" d="M776 0V205H772Q723 100 630 38T422 -25Q276 -25 191 57T106 264Q106 532 461 588L776 635Q776 965 528 965Q359 965 199 829V940Q256 985 353 1017T537 1049Q695 1049 781 951T868 666V0H776ZM494 510Q333 487 268 436T203 268Q203 177 263 118T432 59Q580 59 678 168T776 451V551L494 510ZM824 1423Q824 1320 776 1260T645 1200Q579 1200 494 1276Q430 1331 375 1331Q273 1331 273 1188H201Q201 1288 249 1348T377 1409Q449 1409 537 1337Q604 1278 654 1278Q694 1278 722 1315T750 1423H824Z"/><glyph unicode="ä" horiz-adv-x="1012" d="M776 0V205H772Q723 100 630 38T422 -25Q276 -25 191 57T106 264Q106 532 461 588L776 635Q776 965 528 965Q359 965 199 829V940Q256 985 353 1017T537 1049Q695 1049 781 951T868 666V0H776ZM494 510Q333 487 268 436T203 268Q203 177 263 118T432 59Q580 59 678 168T776 451V551L494 510ZM665 1188Q638 1188 616 1207T594 1260Q594 1291 615 1310T663 1329Q692 1329 715 1310T739 1260Q739 1229 718 1209T665 1188ZM332 1188Q304 1188 282 1207T260 1260Q260 1291 282 1310T330 1329Q359 1329 382 1310T405 1260Q405 1229 384 1209T332 1188Z"/><glyph unicode="å" horiz-adv-x="1012" d="M776 0V205H772Q723 100 630 38T422 -25Q276 -25 191 57T106 264Q106 532 461 588L776 635Q776 965 528 965Q359 965 199 829V940Q256 985 353 1017T537 1049Q695 1049 781 951T868 666V0H776ZM494 510Q333 487 268 436T203 268Q203 177 263 118T432 59Q580 59 678 168T776 451V551L494 510ZM521 1188Q435 1188 378 1238T320 1372Q320 1452 377 1504T521 1556Q609 1556 665 1506T722 1372Q722 1292 664 1240T521 1188ZM521 1489Q464 1489 429 1457T394 1372Q394 1319 430 1287T521 1255Q578 1255 614 1287T650 1372Q650 1429 613 1459T521 1489Z"/><glyph unicode="æ" horiz-adv-x="1718" d="M868 508Q868 297 965 178T1233 59Q1405 59 1569 186V88Q1410 -25 1214 -25Q1078 -25 974 49T823 260H819Q686 -25 428 -25Q278 -25 192 55T106 264Q106 407 205 489T492 580L776 592Q776 965 537 965Q351 965 199 831V940Q360 1049 547 1049Q777 1049 842 795H846Q972 1049 1229 1049Q1419 1049 1522 916T1626 549V508H868ZM1530 592Q1524 769 1445 867T1227 965Q1083 965 989 869T872 592H1530ZM776 508L512 500Q356 495 280 442T203 268Q203 170 266 115T438 59Q574 59 675 166T776 426V508Z"/><glyph unicode="ç" horiz-adv-x="909" d="M827 45Q713 -25 555 -25Q346 -25 218 118T90 494Q90 738 234 893T604 1049Q721 1049 831 1001V897Q721 965 590 965Q410 965 298 836T186 500Q186 301 288 180T559 59Q713 59 827 141V45ZM403 -430V-356Q453 -362 489 -362Q649 -362 649 -270Q649 -184 504 -184Q472 -184 440 -188V0H512V-117Q737 -117 737 -264Q737 -434 483 -434Q447 -434 403 -430Z"/><glyph unicode="è" horiz-adv-x="1034" d="M186 508Q186 297 283 178T551 59Q723 59 887 186V88Q728 -25 532 -25Q334 -25 212 117T90 518Q90 742 217 895T549 1049Q740 1049 842 915T944 549V508H186ZM848 592Q842 769 763 867T545 965Q401 965 307 869T190 592H848ZM569 1188L321 1516H425L659 1188H569Z"/><glyph unicode="é" horiz-adv-x="1034" d="M186 508Q186 297 283 178T551 59Q723 59 887 186V88Q728 -25 532 -25Q334 -25 212 117T90 518Q90 742 217 895T549 1049Q740 1049 842 915T944 549V508H186ZM848 592Q842 769 763 867T545 965Q401 965 307 869T190 592H848ZM489 1188H399L633 1516H737L489 1188Z"/><glyph unicode="ê" horiz-adv-x="1034" d="M186 508Q186 297 283 178T551 59Q723 59 887 186V88Q728 -25 532 -25Q334 -25 212 117T90 518Q90 742 217 895T549 1049Q740 1049 842 915T944 549V508H186ZM848 592Q842 769 763 867T545 965Q401 965 307 869T190 592H848ZM704 1188L547 1427L387 1188H305L526 1524H571L790 1188H704Z"/><glyph unicode="ë" horiz-adv-x="1034" d="M186 508Q186 297 283 178T551 59Q723 59 887 186V88Q728 -25 532 -25Q334 -25 212 117T90 518Q90 742 217 895T549 1049Q740 1049 842 915T944 549V508H186ZM848 592Q842 769 763 867T545 965Q401 965 307 869T190 592H848ZM702 1188Q675 1188 653 1207T631 1260Q631 1291 652 1310T700 1329Q729 1329 752 1310T776 1260Q776 1229 755 1209T702 1188ZM369 1188Q341 1188 319 1207T297 1260Q297 1291 319 1310T367 1329Q396 1329 419 1310T442 1260Q442 1229 421 1209T369 1188Z"/><glyph unicode="ì" horiz-adv-x="420" d="M164 0V1024H256V0H164ZM510 1188L262 1516H366L600 1188H510Z"/><glyph unicode="í" horiz-adv-x="420" d="M164 0V1024H256V0H164ZM429 1188H339L573 1516H677L429 1188Z"/><glyph unicode="î" horiz-adv-x="420" d="M164 0V1024H256V0H164ZM369 1188L212 1427L52 1188H-30L191 1524H236L455 1188H369Z"/><glyph unicode="ï" horiz-adv-x="420" d="M164 0V1024H256V0H164ZM377 1188Q350 1188 328 1207T306 1260Q306 1291 327 1310T375 1329Q404 1329 427 1310T451 1260Q451 1229 430 1209T377 1188ZM44 1188Q16 1188 -6 1207T-28 1260Q-28 1291 -6 1310T42 1329Q71 1329 94 1310T117 1260Q117 1229 96 1209T44 1188Z"/><glyph unicode="ð" horiz-adv-x="1090" d="M801 956L805 961Q703 1141 586 1257L287 1108L252 1178L528 1311Q401 1426 276 1513H426Q507 1455 612 1358L913 1507L948 1436L668 1300Q831 1131 915 923T999 510Q999 275 878 125T547 -25Q327 -25 209 119T90 506Q90 747 218 898T557 1049Q704 1049 801 956ZM557 965Q390 965 288 838T186 504Q186 297 282 178T549 59Q712 59 807 181T903 512Q903 965 557 965Z"/><glyph unicode="ñ" horiz-adv-x="1096" d="M860 0V596Q860 965 594 965Q446 965 351 857T256 588V0H164V1024H256V838H260Q372 1049 610 1049Q776 1049 864 939T952 623V0H860ZM896 1423Q896 1320 848 1260T717 1200Q651 1200 566 1276Q502 1331 447 1331Q345 1331 345 1188H273Q273 1288 321 1348T449 1409Q521 1409 609 1337Q676 1278 726 1278Q766 1278 794 1315T822 1423H896Z"/><glyph unicode="ò" horiz-adv-x="1149" d="M575 -25Q351 -25 221 122T90 506Q90 761 226 905T586 1049Q805 1049 932 906T1059 510Q1059 271 930 123T575 -25ZM582 965Q401 965 294 843T186 504Q186 303 291 181T578 59Q763 59 863 179T963 512Q963 731 864 848T582 965ZM592 1188L344 1516H448L682 1188H592Z"/><glyph unicode="ó" horiz-adv-x="1149" d="M575 -25Q351 -25 221 122T90 506Q90 761 226 905T586 1049Q805 1049 932 906T1059 510Q1059 271 930 123T575 -25ZM582 965Q401 965 294 843T186 504Q186 303 291 181T578 59Q763 59 863 179T963 512Q963 731 864 848T582 965ZM541 1188H451L685 1516H789L541 1188Z"/><glyph unicode="ô" horiz-adv-x="1149" d="M575 -25Q351 -25 221 122T90 506Q90 761 226 905T586 1049Q805 1049 932 906T1059 510Q1059 271 930 123T575 -25ZM582 965Q401 965 294 843T186 504Q186 303 291 181T578 59Q763 59 863 179T963 512Q963 731 864 848T582 965ZM748 1188L591 1427L431 1188H349L570 1524H615L834 1188H748Z"/><glyph unicode="õ" horiz-adv-x="1149" d="M575 -25Q351 -25 221 122T90 506Q90 761 226 905T586 1049Q805 1049 932 906T1059 510Q1059 271 930 123T575 -25ZM582 965Q401 965 294 843T186 504Q186 303 291 181T578 59Q763 59 863 179T963 512Q963 731 864 848T582 965ZM911 1423Q911 1320 863 1260T732 1200Q666 1200 581 1276Q517 1331 462 1331Q360 1331 360 1188H288Q288 1288 336 1348T464 1409Q536 1409 624 1337Q691 1278 741 1278Q781 1278 809 1315T837 1423H911Z"/><glyph unicode="ö" horiz-adv-x="1149" d="M575 -25Q351 -25 221 122T90 506Q90 761 226 905T586 1049Q805 1049 932 906T1059 510Q1059 271 930 123T575 -25ZM582 965Q401 965 294 843T186 504Q186 303 291 181T578 59Q763 59 863 179T963 512Q963 731 864 848T582 965ZM749 1188Q722 1188 700 1207T678 1260Q678 1291 699 1310T747 1329Q776 1329 799 1310T823 1260Q823 1229 802 1209T749 1188ZM416 1188Q388 1188 366 1207T344 1260Q344 1291 366 1310T414 1329Q443 1329 466 1310T489 1260Q489 1229 468 1209T416 1188Z"/><glyph unicode="÷" horiz-adv-x="1331" d="M668 866Q636 866 613 889T590 944Q590 976 613 998T668 1020Q700 1020 721 998T743 944Q743 912 722 889T668 866ZM213 555V639H1120V555H213ZM668 174Q636 174 613 197T590 252Q590 284 613 306T668 328Q700 328 721 306T743 252Q743 220 722 197T668 174Z"/><glyph unicode="ø" horiz-adv-x="1149" d="M961 870Q1059 730 1059 510Q1059 271 930 123T575 -25Q383 -25 256 88L90 -96L29 -39L199 150Q90 296 90 506Q90 761 226 905T586 1049Q785 1049 907 934L1079 1124L1141 1069L961 870ZM846 866Q747 965 582 965Q401 965 294 843T186 504Q186 337 262 219L846 866ZM897 799L315 156Q419 59 578 59Q763 59 863 179T963 512Q963 683 897 799Z"/><glyph unicode="ù" horiz-adv-x="1096" d="M840 0V186H836Q729 -25 506 -25Q143 -25 143 432V1024H236V455Q236 247 304 153T520 59Q663 59 751 164T840 444V1024H932V0H840ZM558 1188L310 1516H414L648 1188H558Z"/><glyph unicode="ú" horiz-adv-x="1096" d="M840 0V186H836Q729 -25 506 -25Q143 -25 143 432V1024H236V455Q236 247 304 153T520 59Q663 59 751 164T840 444V1024H932V0H840ZM543 1188H453L687 1516H791L543 1188Z"/><glyph unicode="û" horiz-adv-x="1096" d="M840 0V186H836Q729 -25 506 -25Q143 -25 143 432V1024H236V455Q236 247 304 153T520 59Q663 59 751 164T840 444V1024H932V0H840ZM726 1188L569 1427L409 1188H327L548 1524H593L812 1188H726Z"/><glyph unicode="ü" horiz-adv-x="1096" d="M840 0V186H836Q729 -25 506 -25Q143 -25 143 432V1024H236V455Q236 247 304 153T520 59Q663 59 751 164T840 444V1024H932V0H840ZM735 1188Q708 1188 686 1207T664 1260Q664 1291 685 1310T733 1329Q762 1329 785 1310T809 1260Q809 1229 788 1209T735 1188ZM402 1188Q374 1188 352 1207T330 1260Q330 1291 352 1310T400 1329Q429 1329 452 1310T475 1260Q475 1229 454 1209T402 1188Z"/><glyph unicode="ý" horiz-adv-x="928" d="M414 -209Q358 -347 290 -414T115 -481Q70 -481 35 -467V-375Q71 -389 119 -389Q242 -389 313 -219L408 8L20 1024H123L432 190Q442 163 446 149Q450 130 455 115H459L483 184L813 1024H913L414 -209ZM448 1188H358L592 1516H696L448 1188Z"/><glyph unicode="þ" horiz-adv-x="1147" d="M260 182H256V-471H164V1516H256V813H260Q315 926 417 987T643 1049Q838 1049 947 915T1057 549Q1057 292 932 134T600 -25Q370 -25 260 182ZM256 563V434Q256 280 353 170T608 59Q765 59 863 193T961 547Q961 739 871 852T631 965Q452 965 354 845T256 563Z"/><glyph unicode="ÿ" horiz-adv-x="928" d="M414 -209Q358 -347 290 -414T115 -481Q70 -481 35 -467V-375Q71 -389 119 -389Q242 -389 313 -219L408 8L20 1024H123L432 190Q442 163 446 149Q450 130 455 115H459L483 184L813 1024H913L414 -209ZM636 1188Q609 1188 587 1207T565 1260Q565 1291 586 1310T634 1329Q663 1329 686 1310T710 1260Q710 1229 689 1209T636 1188ZM303 1188Q275 1188 253 1207T231 1260Q231 1291 253 1310T301 1329Q330 1329 353 1310T376 1260Q376 1229 355 1209T303 1188Z"/><glyph unicode="ı" horiz-adv-x="420" d="M164 0V1024H256V0H164Z"/><glyph unicode="Œ" horiz-adv-x="1935" d="M1077 0Q903 -25 795 -25Q469 -25 289 178T109 702Q109 1046 296 1252T811 1458Q952 1458 1077 1434H1747V1343H1176V768H1706V678H1176V90H1780V0H1077ZM1077 1341Q947 1368 805 1368Q532 1368 372 1185T211 713Q211 421 363 244T793 66Q932 66 1077 96V1341Z"/><glyph unicode="œ" horiz-adv-x="1886" d="M1057 508Q1057 299 1153 179T1421 59Q1595 59 1757 186V88Q1600 -25 1407 -25Q1113 -25 1012 272H1008Q892 -25 575 -25Q349 -25 220 124T90 506Q90 764 227 906T586 1049Q742 1049 854 969T1010 752H1014Q1129 1049 1421 1049Q1611 1049 1713 917T1815 549V508H1057ZM1718 592Q1712 769 1633 867T1415 965Q1270 965 1175 867T1061 592H1718ZM582 965Q401 965 294 843T186 504Q186 303 291 181T578 59Q763 59 863 179T963 512Q963 731 864 848T582 965Z"/><glyph unicode="Š" horiz-adv-x="1018" d="M139 51V164Q293 66 451 66Q619 66 706 135T793 330Q793 440 735 505T481 684Q263 811 205 896T147 1094Q147 1246 265 1352T580 1458Q708 1458 836 1415V1311Q710 1368 567 1368Q421 1368 336 1294T250 1106Q250 996 308 931T561 754Q762 640 828 552T895 348Q895 183 781 79T457 -25Q383 -25 287 -2T139 51ZM566 1567H521L301 1903H387L545 1663L705 1903H787L566 1567Z"/><glyph unicode="š" horiz-adv-x="795" d="M111 45V156Q163 111 237 85T365 59Q606 59 606 256Q606 324 553 372T381 471Q234 535 175 603T115 770Q115 895 210 972T446 1049Q578 1049 672 995V891Q558 965 436 965Q335 965 273 913T211 776Q211 703 250 658T422 553Q582 481 642 420T702 256Q702 134 611 55T358 -25Q210 -25 111 45ZM445 1188H400L180 1524H266L424 1284L584 1524H666L445 1188Z"/><glyph unicode="Ÿ" horiz-adv-x="1106" d="M598 545V0H500V543L61 1434H172L506 743Q524 707 551 637H555Q569 674 604 741L954 1434H1061L598 545ZM716 1535Q689 1535 667 1554T645 1607Q645 1638 666 1657T714 1676Q743 1676 766 1657T790 1607Q790 1576 769 1556T716 1535ZM383 1535Q355 1535 333 1554T311 1607Q311 1638 333 1657T381 1676Q410 1676 433 1657T456 1607Q456 1576 435 1556T383 1535Z"/><glyph unicode="Ž" horiz-adv-x="1167" d="M215 90H1073V0H66V31L934 1343H135V1434H1087V1407L215 90ZM648 1535H603L383 1871H469L627 1631L787 1871H869L648 1535Z"/><glyph unicode="ž" horiz-adv-x="950" d="M207 84H868V0H57V35L737 940H106V1024H893V999L207 84ZM530 1188H485L265 1524H351L509 1284L669 1524H751L530 1188Z"/><glyph unicode="ƒ" horiz-adv-x="1055" d="M911 1339Q879 1352 842 1352Q664 1352 635 1151L602 920H774V838H590L492 133Q461 -88 385 -183T184 -279Q150 -279 113 -266V-184Q154 -197 180 -197Q356 -197 399 127L496 838H391V920H508L541 1151Q561 1292 637 1363T829 1434Q874 1434 911 1423V1339Z"/><glyph unicode="ȷ" horiz-adv-x="420" d="M256 29Q256 -481 -106 -481Q-178 -481 -252 -446V-350Q-172 -397 -96 -397Q164 -397 164 12V1024H256V29Z"/><glyph unicode="ˆ" horiz-adv-x="766" d="M528 1188L371 1427L211 1188H129L350 1524H395L614 1188H528Z"/><glyph unicode="ˇ" horiz-adv-x="766" d="M412 1188H367L147 1524H233L391 1284L551 1524H633L412 1188Z"/><glyph unicode="˙" horiz-adv-x="365" d="M182 1188Q151 1188 128 1210T104 1266Q104 1300 127 1319T180 1339Q211 1339 235 1320T260 1266Q260 1234 237 1211T182 1188Z"/><glyph unicode="˚" horiz-adv-x="594" d="M297 1188Q211 1188 154 1238T96 1372Q96 1452 153 1504T297 1556Q385 1556 441 1506T498 1372Q498 1292 440 1240T297 1188ZM297 1489Q240 1489 205 1457T170 1372Q170 1319 206 1287T297 1255Q354 1255 390 1287T426 1372Q426 1429 389 1459T297 1489Z"/><glyph unicode="˜" horiz-adv-x="649" d="M664 1423Q664 1320 616 1260T485 1200Q419 1200 334 1276Q270 1331 215 1331Q113 1331 113 1188H41Q41 1288 89 1348T217 1409Q289 1409 377 1337Q444 1278 494 1278Q534 1278 562 1315T590 1423H664Z"/><glyph unicode="‐" horiz-adv-x="815" d="M145 555V645H692V555H145Z"/><glyph unicode="–" horiz-adv-x="1024" d="M0 555V645H1024V555H0Z"/><glyph unicode="—" horiz-adv-x="2048" d="M0 555V645H2048V555H0Z"/><glyph unicode="‘" horiz-adv-x="438" d="M219 985H113L266 1434H342L219 985Z"/><glyph unicode="’" horiz-adv-x="438" d="M186 985H113L238 1434H342L186 985Z"/><glyph unicode="‚" horiz-adv-x="438" d="M152 -225H78L203 219H307L152 -225Z"/><glyph unicode="“" horiz-adv-x="686" d="M465 985H360L516 1434H590L465 985ZM219 985H113L266 1434H342L219 985Z"/><glyph unicode="”" horiz-adv-x="686" d="M436 985H360L483 1434H590L436 985ZM186 985H113L238 1434H342L186 985Z"/><glyph unicode="„" horiz-adv-x="686" d="M401 -229H326L449 219H555L401 -229ZM152 -229H78L203 219H307L152 -229Z"/><glyph unicode="†" horiz-adv-x="756" d="M708 933L436 963L406 229H370L340 963L48 933V1043L360 1023L330 1433H446L416 1023L708 1043V933Z"/><glyph unicode="‡" horiz-adv-x="756" d="M708 519L416 549L446 229H330L360 549L48 519V629L340 609L378 831L340 1053L48 1033V1143L360 1113L330 1433H446L416 1113L708 1143V1033L436 1053L398 831L436 609L708 629V519Z"/><glyph unicode="•" horiz-adv-x="811" d="M408 477Q307 477 236 547T164 713Q164 810 235 882T408 954Q507 954 577 883T647 713Q647 615 577 546T408 477Z"/><glyph unicode="…" horiz-adv-x="1364" d="M1139 -16Q1105 -16 1082 7T1059 66Q1059 100 1082 122T1139 145Q1173 145 1197 123T1221 66Q1221 31 1197 8T1139 -16ZM678 -16Q644 -16 621 7T598 66Q598 100 621 122T678 145Q712 145 736 123T760 66Q760 31 736 8T678 -16ZM221 -16Q187 -16 164 7T141 66Q141 100 164 122T221 145Q255 145 279 123T303 66Q303 31 279 8T221 -16Z"/><glyph unicode="‰" horiz-adv-x="2445" d="M414 729Q260 729 171 830T82 1092Q82 1267 176 1364T424 1462Q574 1462 662 1365T750 1094Q750 938 659 834T414 729ZM422 1380Q307 1380 241 1304T174 1090Q174 961 238 885T416 809Q530 809 594 887T659 1096Q659 1237 595 1308T422 1380ZM416 -33H317L1180 1432H1276L416 -33ZM2021 -25Q1867 -25 1779 76T1690 338Q1690 515 1786 612T2032 709Q2182 709 2269 611T2357 340Q2357 184 2266 80T2021 -25ZM2030 627Q1917 627 1850 551T1782 336Q1782 208 1846 132T2023 55Q2138 55 2202 132T2267 342Q2267 484 2203 555T2030 627ZM1198 -25Q1045 -25 956 76T866 338Q866 515 962 612T1208 709Q1358 709 1446 611T1534 340Q1534 184 1443 80T1198 -25ZM1206 627Q1092 627 1025 549T958 336Q958 207 1022 131T1200 55Q1315 55 1379 132T1444 342Q1444 483 1380 555T1206 627Z"/><glyph unicode="‹" horiz-adv-x="635" d="M401 201L123 537L401 881H514L231 537L512 201H401Z"/><glyph unicode="›" horiz-adv-x="635" d="M238 201H123L408 545L125 881H238L514 545L238 201Z"/><glyph unicode="⁄" horiz-adv-x="246" d="M-244 0H-342L520 1434H616L-244 0Z"/><glyph unicode="⁰" horiz-adv-x="674" d="M530 1299Q530 1672 346 1672Q250 1672 198 1578T145 1293Q145 1123 194 1031T338 939Q431 939 480 1032T530 1299ZM618 1310Q618 1089 543 974T330 859Q202 859 131 969T59 1285Q59 1517 133 1633T350 1750Q618 1750 618 1310Z"/><glyph unicode="ⁱ" horiz-adv-x="346" d="M172 1620Q145 1620 128 1641T111 1696Q111 1727 128 1749T172 1771Q200 1771 217 1749T235 1696Q235 1664 218 1642T172 1620ZM217 717H125V1434H217V717Z"/><glyph unicode="⁴" horiz-adv-x="674" d="M518 1103V884H436V1103H43V1166L428 1734H518V1181H629V1103H518ZM434 1625Q401 1564 389 1547L143 1181H436V1549L438 1625H434Z"/><glyph unicode="⁵" horiz-adv-x="674" d="M580 1144Q580 1075 557 1022T492 932T394 878T274 859Q169 859 96 902V988Q144 962 191 951T276 939Q326 939 366 953T435 994T479 1056T494 1138Q494 1310 264 1310Q248 1310 226 1309T183 1307T146 1304T123 1301V1734H541V1650H203V1387Q224 1389 246 1390T291 1392Q353 1392 406 1377T497 1330T558 1253T580 1144Z"/><glyph unicode="⁶" horiz-adv-x="674" d="M528 1142Q528 1187 517 1224T484 1289T429 1331T350 1347Q309 1347 275 1331T216 1288T176 1228T162 1160Q162 1126 171 1088T202 1016T259 961T346 939Q388 939 422 955T479 999T515 1064T528 1142ZM616 1154Q616 1090 597 1036T541 943T456 881T346 859Q281 859 230 884T142 959T87 1082T68 1250Q68 1363 92 1455T164 1612T280 1714T436 1750Q474 1750 510 1744T573 1727V1639Q544 1653 509 1660T442 1668Q375 1668 322 1641T231 1564T173 1441T152 1279H154Q186 1353 242 1389T373 1426Q427 1426 472 1406T549 1350T598 1264T616 1154Z"/><glyph unicode="⁷" horiz-adv-x="674" d="M279 873H193L524 1652H66V1734H621V1680L279 873Z"/><glyph unicode="⁸" horiz-adv-x="674" d="M528 1101Q530 1167 481 1214T332 1295Q241 1264 193 1219T145 1105Q145 1063 161 1034T204 985T265 956T334 947Q367 947 401 956T463 985T509 1033T528 1101ZM500 1533Q500 1566 488 1592T455 1635T405 1662T342 1672Q308 1672 279 1662T227 1634T191 1590T178 1535Q178 1473 220 1435T338 1369Q416 1398 458 1436T500 1533ZM618 1109Q618 1043 592 997T523 921T430 879T330 865Q285 865 236 877T147 916T81 989T55 1099Q55 1182 104 1238T238 1332Q168 1364 127 1413T86 1533Q86 1590 108 1632T167 1701T249 1741T342 1754Q388 1754 433 1741T513 1702T570 1636T592 1545Q592 1504 580 1472T545 1414T493 1368T426 1332Q469 1316 504 1295T565 1246T604 1185T618 1109Z"/><glyph unicode="⁹" horiz-adv-x="674" d="M512 1441Q512 1488 499 1529T461 1602T404 1652T330 1670Q289 1670 255 1655T197 1611T159 1543T145 1457Q145 1369 188 1315T317 1261Q362 1261 398 1277T460 1319T498 1377T512 1441ZM604 1367Q604 1245 579 1150T507 991T391 893T236 859Q159 859 96 882V972Q111 965 128 959T165 949T202 942T236 939Q304 939 357 965T446 1040T501 1160T520 1320H518Q487 1251 432 1216T301 1181Q247 1181 202 1201T125 1258T75 1344T57 1455Q57 1521 77 1575T132 1668T216 1728T322 1750Q384 1750 435 1727T524 1656T583 1536T604 1367Z"/><glyph unicode="ⁿ" horiz-adv-x="803" d="M598 717V1123Q598 1374 433 1374Q339 1374 278 1300T217 1117V717H125V1434H211V1304H213Q287 1452 444 1452Q564 1452 627 1375T690 1154V717H598Z"/><glyph unicode="₀" horiz-adv-x="674" d="M530 174Q530 547 346 547Q250 547 198 453T145 168Q145 -2 194 -94T338 -186Q431 -186 480 -93T530 174ZM618 185Q618 -36 543 -151T330 -266Q202 -266 131 -156T59 160Q59 392 133 508T350 625Q618 625 618 185Z"/><glyph unicode="₁" horiz-adv-x="674" d="M600 -241H129V-159H324V523L115 453V541L410 635V-159H600V-241Z"/><glyph unicode="₂" horiz-adv-x="674" d="M596 -241H78V-141L317 93Q378 152 414 195T470 272T496 334T502 394Q502 547 344 547Q235 547 123 449V551Q179 589 235 609T350 629Q407 629 452 613T528 568T577 497T594 406Q594 367 585 329T551 248T484 154T375 39L182 -147V-151H596V-241Z"/><glyph unicode="₃" horiz-adv-x="674" d="M561 -14Q561 -68 542 -114T487 -193T399 -246T281 -266Q174 -266 88 -219V-123Q188 -186 283 -186Q374 -186 424 -139T475 -14Q475 154 240 154H170V234H231Q446 234 446 406Q446 543 293 543Q222 543 121 490V580Q170 603 217 614T311 625Q363 625 404 610T475 568T519 502T535 418Q535 256 387 203V199Q472 180 516 122T561 -14Z"/><glyph unicode="₄" horiz-adv-x="674" d="M518 -22V-241H436V-22H43V41L428 609H518V56H629V-22H518ZM434 500Q401 439 389 422L143 56H436V424L438 500H434Z"/><glyph unicode="₅" horiz-adv-x="674" d="M580 19Q580 -50 557 -103T492 -193T394 -247T274 -266Q169 -266 96 -223V-137Q144 -163 191 -174T276 -186Q326 -186 366 -172T435 -131T479 -69T494 13Q494 185 264 185Q248 185 226 184T183 182T146 179T123 176V609H541V525H203V262Q224 264 246 265T291 267Q353 267 406 252T497 205T558 128T580 19Z"/><glyph unicode="₆" horiz-adv-x="674" d="M528 17Q528 62 517 99T484 164T429 206T350 222Q309 222 275 206T216 163T176 103T162 35Q162 1 171 -37T202 -109T259 -164T346 -186Q388 -186 422 -170T479 -126T515 -61T528 17ZM616 29Q616 -35 597 -89T541 -182T456 -244T346 -266Q281 -266 230 -241T142 -166T87 -43T68 125Q68 238 92 330T164 487T280 589T436 625Q474 625 510 619T573 602V514Q544 528 509 535T442 543Q375 543 322 516T231 439T173 316T152 154H154Q186 228 242 264T373 301Q427 301 472 281T549 225T598 139T616 29Z"/><glyph unicode="₇" horiz-adv-x="674" d="M279 -252H193L524 527H66V609H621V555L279 -252Z"/><glyph unicode="₈" horiz-adv-x="674" d="M528 -24Q530 42 481 89T332 170Q241 139 193 94T145 -20Q145 -62 161 -91T204 -140T265 -169T334 -178Q367 -178 401 -169T463 -140T509 -92T528 -24ZM500 408Q500 441 488 467T455 510T405 537T342 547Q308 547 279 537T227 509T191 465T178 410Q178 348 220 310T338 244Q416 273 458 311T500 408ZM618 -16Q618 -82 592 -128T523 -204T430 -246T330 -260Q285 -260 236 -248T147 -209T81 -136T55 -26Q55 57 104 113T238 207Q168 239 127 288T86 408Q86 465 108 507T167 576T249 616T342 629Q388 629 433 616T513 577T570 511T592 420Q592 379 580 347T545 289T493 243T426 207Q469 191 504 170T565 121T604 60T618 -16Z"/><glyph unicode="₉" horiz-adv-x="674" d="M512 316Q512 363 499 404T461 477T404 527T330 545Q289 545 255 530T197 486T159 418T145 332Q145 244 188 190T317 136Q362 136 398 152T460 194T498 252T512 316ZM604 242Q604 120 579 25T507 -134T391 -232T236 -266Q159 -266 96 -243V-153Q111 -160 128 -166T165 -176T202 -183T236 -186Q304 -186 357 -160T446 -85T501 35T520 195H518Q487 126 432 91T301 56Q247 56 202 76T125 133T75 219T57 330Q57 396 77 450T132 543T216 603T322 625Q384 625 435 602T524 531T583 411T604 242Z"/><glyph unicode="€" horiz-adv-x="1055" d="M963 53Q833 -25 688 -25Q510 -25 385 110T223 500H78V584H215Q211 632 211 686Q211 757 217 821H78V905H227Q271 1169 405 1313T729 1458Q857 1458 963 1405V1303Q845 1374 721 1374Q575 1374 467 1255T322 905H864V821H311Q307 787 307 698Q307 640 311 584H864V500H322Q355 281 456 170T700 59Q826 59 963 152V53Z"/><glyph unicode="™" horiz-adv-x="1585" d="M1294 772V1305H1290L1063 772H995L778 1305H774V772H692V1434H807L1030 889H1034L1268 1434H1376V772H1294ZM373 1356V772H291V1356H70V1434H596V1356H373Z"/><glyph unicode="∕" horiz-adv-x="246" d="M-244 0H-342L520 1434H616L-244 0Z"/><glyph unicode="∙" horiz-adv-x="444" d="M227 625Q193 625 170 649T147 707Q147 741 170 763T227 786Q261 786 285 764T309 707Q309 673 285 649T227 625Z"/><glyph unicode="ﬀ" horiz-adv-x="1135" d="M1182 1419Q1144 1448 1070 1448Q881 1448 881 1194V1024H1152V940H881V0H789V940H311V0H219V940H35V1024H219V1040Q219 1279 307 1395T555 1512Q596 1512 629 1509T691 1496V1402Q667 1413 633 1420T550 1428Q490 1428 446 1407T371 1338T326 1216T311 1037V1024H789V1202Q789 1284 811 1346T871 1449T962 1511T1074 1532Q1140 1532 1182 1513V1419Z"/><glyph unicode="ﬃ" horiz-adv-x="1615" d="M1359 0V940H881V0H789V940H311V0H219V940H35V1024H219V1040Q219 1279 307 1395T555 1512Q596 1512 629 1509T691 1496V1402Q667 1413 633 1420T550 1428Q490 1428 446 1407T371 1338T326 1216T311 1037V1024H789V1042Q789 1277 893 1404T1203 1532Q1264 1532 1320 1526T1411 1511V1417Q1373 1428 1317 1438T1206 1448Q1120 1448 1059 1423T958 1346T900 1217T881 1037V1024H1451V0H1359Z"/><glyph unicode="ﬄ" horiz-adv-x="1615" d="M1359 0V1430Q1324 1438 1284 1443T1206 1448Q1120 1448 1059 1423T958 1346T900 1217T881 1037V1024H1155V940H881V0H789V940H311V0H219V940H35V1024H219V1040Q219 1279 307 1395T555 1512Q596 1512 629 1509T691 1496V1402Q667 1413 633 1420T550 1428Q490 1428 446 1407T371 1338T326 1216T311 1037V1024H789V1042Q789 1277 893 1404T1203 1532Q1254 1532 1319 1526T1451 1508V0H1359Z"/><glyph unicode="﴾" horiz-adv-x="578" d="M453 -326Q150 28 150 545Q150 1085 457 1434H555Q242 1074 242 547Q242 50 551 -326H453Z"/><glyph unicode="﴿" horiz-adv-x="578" d="M125 -326H27Q336 50 336 547Q336 1074 23 1434H121Q428 1083 428 545Q428 26 125 -326Z"/></font>
</defs>
</svg>
