<?xml version="1.0" encoding="UTF-8"?><svg xmlns="http://www.w3.org/2000/svg" width="100%" height="100%"><defs><font id="web" horiz-adv-x="1208"><!--



NOTICE: This font software is the valuable property 
of Monotype Imaging and/or its suppliers and its use 
by you is covered under the terms of the Web Font license 
agreement between you and Monotype Imaging. You may 
ONLY use this font software with the licensed web site. 
Except as specifically permitted by the license, you 
may not copy this font software. If you have any questions, 
please contact Monotype Imaging. 

For more information, please visit http://www.ascenderfonts.com/info/webfont-eula.aspx

Licensed to: microsoft.com

Serial number: SH-265
--><font-face font-family="" units-per-em="2048" panose-1="2 11 8 2 4 2 4 2 2 3" ascent="2210" descent="-514" alphabetic="0"/><missing-glyph horiz-adv-x="1322" d="M166 0V1398H1156V0H166ZM314 148H1008V1250H314V148Z"/><glyph unicode="&#13;" horiz-adv-x="100"/><glyph unicode=" " horiz-adv-x="565"/><glyph unicode="!" horiz-adv-x="670" d="M500 1434L461 446H205L168 1434H500ZM336 -23Q256 -23 204 25T152 143Q152 215 204 261T336 307Q416 307 467 261T518 143Q518 71 468 24T336 -23Z"/><glyph unicode="&quot;" horiz-adv-x="1010" d="M819 1452V1008H586V1452H819ZM423 1452V1010H191V1452H423Z"/><glyph unicode="#" horiz-adv-x="1213" d="M1176 1069L1137 889H952L897 641H1104L1059 461H860L782 115H582L655 461H426L352 115H152L223 461H37L74 641H262L315 889H113L147 1069H352L426 1425H631L557 1069H786L862 1425H1065L991 1069H1176ZM750 889H518L463 641H694L750 889Z"/><glyph unicode="$" horiz-adv-x="1178" d="M674 8V-209H528V2Q325 3 150 94V371Q208 324 323 284T528 238V602Q294 689 209 790T123 1038Q123 1195 234 1305T528 1434V1620H674V1438Q885 1428 989 1370V1100Q849 1185 674 1204V825Q893 746 988 645T1083 399Q1083 233 977 132T674 8ZM528 883V1200Q389 1175 389 1055Q389 952 528 883ZM674 545V242Q817 264 817 385Q817 483 674 545Z"/><glyph unicode="%" horiz-adv-x="1776" d="M430 707Q277 707 184 804T90 1065Q90 1244 189 1349T455 1454Q614 1454 703 1359T793 1092Q793 915 694 811T430 707ZM449 1278Q303 1278 303 1075Q303 883 442 883Q584 883 584 1083Q584 1278 449 1278ZM1477 1434L543 0H299L1231 1434H1477ZM1323 -20Q1170 -20 1077 77T983 338Q983 517 1082 622T1348 727Q1508 727 1597 633T1686 367Q1686 190 1587 85T1323 -20ZM1339 551Q1194 551 1194 348Q1194 156 1335 156Q1477 156 1477 356Q1477 449 1439 500T1339 551Z"/><glyph unicode="&amp;" horiz-adv-x="1740" d="M1479 -23Q1426 -23 1379 -9T1289 29T1208 85T1136 155Q1099 125 1047 93T930 36T785 -6T616 -23Q499 -23 400 5T228 88T116 226T75 416Q75 501 105 567T185 684T296 770T422 830Q391 854 360 885T303 954T263 1036T247 1129Q247 1208 279 1269T368 1372T506 1436T682 1458Q774 1458 850 1435T982 1371T1067 1273T1097 1146Q1097 1035 1031 954T843 821Q891 799 935 771T1021 707T1103 626T1182 521Q1264 624 1299 740T1335 983Q1335 1021 1331 1056T1316 1121H1585Q1596 1089 1601 1059T1606 988Q1606 891 1586 799T1528 623T1439 464T1323 324Q1372 273 1424 246T1522 218Q1570 218 1620 228T1707 258V20Q1652 -2 1599 -12T1479 -23ZM632 216Q691 216 743 227T841 258T926 302T999 354Q948 434 898 489T799 584T702 651T604 700Q563 680 526 656T459 599T413 525T395 429Q395 381 412 342T460 275T535 232T632 216ZM817 1124Q817 1153 806 1176T776 1214T733 1238T682 1247Q649 1247 622 1237T574 1210T542 1170T531 1119Q531 1063 566 1016T653 940Q686 952 715 968T767 1006T803 1057T817 1124Z"/><glyph unicode="'" horiz-adv-x="600" d="M415 1452V1010H175V1452H415Z"/><glyph unicode="(" horiz-adv-x="756" d="M739 -326H481Q158 30 158 549Q158 1050 481 1434H737Q434 1032 434 549Q434 66 739 -326Z"/><glyph unicode=")" horiz-adv-x="756" d="M274 -326H18Q324 64 324 549Q324 1030 18 1434H276Q600 1049 600 549Q600 34 274 -326Z"/><glyph unicode="*" horiz-adv-x="932" d="M864 1053L590 1016L786 805L604 680L467 934L330 680L147 805L344 1016L70 1053L141 1255L393 1147L350 1434H584L541 1147L791 1255L864 1053Z"/><glyph unicode="+" horiz-adv-x="1448" d="M1212 485H827V100H625V485H238V688H625V1075H827V688H1212V485Z"/><glyph unicode="," horiz-adv-x="555" d="M432 252L285 -254H39L141 252H432Z"/><glyph unicode="-" horiz-adv-x="828" d="M690 436H143V657H690V436Z"/><glyph unicode="." horiz-adv-x="555" d="M274 -25Q196 -25 144 23T92 141Q92 213 145 259T279 305Q360 305 411 259T463 141Q463 68 411 22T274 -25Z"/><glyph unicode="/" horiz-adv-x="908" d="M932 1434L233 -238H-49L647 1434H932Z"/><glyph unicode="0" horiz-adv-x="1178" d="M582 -25Q70 -25 70 694Q70 1067 208 1262T610 1458Q1110 1458 1110 727Q1110 363 974 169T582 -25ZM596 1217Q391 1217 391 702Q391 217 592 217Q788 217 788 717Q788 1217 596 1217Z"/><glyph unicode="1" horiz-adv-x="1178" d="M1077 0H170V250H467V1143L162 1077V1333L782 1458V250H1077V0Z"/><glyph unicode="2" horiz-adv-x="1178" d="M471 268V262H1053V0H109V246L520 639Q644 758 694 838T745 1008Q745 1206 532 1206Q347 1206 178 1059V1337Q365 1458 600 1458Q820 1458 943 1348T1067 1049Q1067 798 766 530L471 268Z"/><glyph unicode="3" horiz-adv-x="1178" d="M147 47V322Q291 217 483 217Q604 217 671 269T739 414Q739 510 656 562T426 614H297V856H416Q696 856 696 1042Q696 1217 481 1217Q337 1217 201 1124V1382Q352 1458 553 1458Q773 1458 895 1359T1018 1102Q1018 821 733 750V745Q885 726 973 635T1061 410Q1061 209 914 92T508 -25Q286 -25 147 47Z"/><glyph unicode="4" horiz-adv-x="1178" d="M1124 305H952V0H664V305H39V506L641 1434H952V530H1124V305ZM668 1118H662Q648 1082 608 1006L301 530H664V981Q664 1041 668 1118Z"/><glyph unicode="5" horiz-adv-x="1178" d="M164 37V307Q311 217 477 217Q602 217 672 276T743 438Q743 651 442 651Q344 651 205 633V1434H999V1176H475V889Q538 895 594 895Q815 895 940 779T1065 467Q1065 250 916 113T512 -25Q305 -25 164 37Z"/><glyph unicode="6" horiz-adv-x="1178" d="M1008 1419V1155Q899 1217 770 1217Q611 1217 514 1096T412 770H418Q521 922 719 922Q899 922 1004 800T1110 477Q1110 261 970 118T614 -25Q372 -25 236 150T100 641Q100 1013 275 1235T750 1458Q916 1458 1008 1419ZM612 688Q525 688 474 627T422 471Q422 366 474 292T614 217Q699 217 750 283T801 457Q801 688 612 688Z"/><glyph unicode="7" horiz-adv-x="1178" d="M1094 1288L588 0H254L764 1176H96V1434H1094V1288Z"/><glyph unicode="8" horiz-adv-x="1178" d="M371 745V750Q125 851 125 1077Q125 1243 257 1350T598 1458Q811 1458 938 1358T1065 1098Q1065 863 793 752V748Q939 705 1019 607T1100 385Q1100 195 960 85T567 -25Q349 -25 216 82T82 367Q82 624 371 745ZM768 1071Q768 1144 722 1187T598 1231Q523 1231 474 1186T424 1069Q424 935 596 866Q768 937 768 1071ZM582 625Q381 546 381 383Q381 305 442 254T592 203Q687 203 745 253T803 385Q803 549 582 625Z"/><glyph unicode="9" horiz-adv-x="1178" d="M160 31V291Q273 217 432 217Q598 217 688 329T780 649L774 651Q679 510 485 510Q309 510 194 633T78 952Q78 1181 219 1319T584 1458Q814 1458 950 1284T1087 786Q1087 402 923 189T463 -25Q288 -25 160 31ZM575 1217Q493 1217 440 1151T387 979Q387 870 439 808T582 745Q664 745 716 804T768 954Q768 1067 714 1142T575 1217Z"/><glyph unicode=":" horiz-adv-x="555" d="M274 707Q196 707 144 754T92 872Q92 944 145 990T279 1036Q360 1036 411 990T463 872Q463 799 411 753T274 707ZM274 -25Q196 -25 144 23T92 141Q92 213 145 259T279 305Q360 305 411 259T463 141Q463 68 411 22T274 -25Z"/><glyph unicode=";" horiz-adv-x="555" d="M281 707Q202 707 150 755T98 872Q98 945 150 990T283 1036Q364 1036 415 990T467 872Q467 799 416 753T281 707ZM432 252L285 -254H39L141 252H432Z"/><glyph unicode="&lt;" horiz-adv-x="1448" d="M1192 63L258 489V651L1192 1098V860L526 575V569L1192 301V63Z"/><glyph unicode="=" horiz-adv-x="1448" d="M1212 700H238V905H1212V700ZM1212 266H238V469H1212V266Z"/><glyph unicode="&gt;" horiz-adv-x="1448" d="M1192 502L258 76V313L926 580V584L258 870V1108L1192 664V502Z"/><glyph unicode="?" horiz-adv-x="897" d="M263 415Q253 441 248 473T242 535Q242 581 251 619T278 690T323 754T386 815Q424 847 452 874T501 929T531 986T541 1052Q541 1083 530 1109T499 1155T449 1185T383 1196Q305 1196 221 1164T62 1065V1366Q139 1412 230 1435T418 1458Q511 1458 591 1438T730 1373T823 1261T857 1096Q857 1035 843 986T802 892T735 808T643 724Q608 695 582 670T538 621T511 569T502 506Q502 482 508 457T526 415H263ZM409 -23Q329 -23 276 25Q223 75 223 143Q223 213 276 260Q329 307 409 307Q488 307 540 260Q592 214 592 143Q592 71 541 24Q489 -23 409 -23Z"/><glyph unicode="@" horiz-adv-x="1954" d="M1122 371H1116Q1046 180 862 180Q724 180 640 280T555 557Q555 786 672 929T954 1073Q1103 1073 1141 956H1145L1155 1055H1380Q1335 629 1335 498Q1335 358 1411 358Q1491 358 1543 464T1595 741Q1595 975 1446 1124T1030 1274Q744 1274 555 1075T365 588Q365 310 532 150T995 -10Q1220 -10 1407 76V-115Q1236 -188 967 -188Q598 -188 367 23T135 592Q135 956 382 1204T1018 1452Q1378 1452 1600 1260T1823 752Q1823 493 1687 337T1350 180Q1251 180 1189 233T1122 371ZM989 899Q899 899 843 797T786 559Q786 463 824 410T924 356Q1018 356 1072 457T1126 727Q1126 807 1089 853T989 899Z"/><glyph unicode="A" horiz-adv-x="1440" d="M1425 0H1073L971 319H461L360 0H10L532 1434H915L1425 0ZM897 567L743 1049Q726 1103 719 1178H711Q706 1115 686 1053L530 567H897Z"/><glyph unicode="B" horiz-adv-x="1313" d="M164 0V1434H686Q926 1434 1055 1346T1184 1098Q1184 982 1106 895T905 774V770Q1058 751 1149 657T1241 428Q1241 231 1100 116T715 0H164ZM487 1196V856H629Q729 856 786 904T844 1038Q844 1196 608 1196H487ZM487 616V238H662Q774 238 837 290T901 432Q901 518 839 567T664 616H487Z"/><glyph unicode="C" horiz-adv-x="1278" d="M1192 51Q1035 -25 782 -25Q452 -25 263 169T74 686Q74 1030 286 1244T838 1458Q1048 1458 1192 1405V1094Q1048 1180 864 1180Q662 1180 538 1053T414 709Q414 501 531 378T846 254Q1035 254 1192 346V51Z"/><glyph unicode="D" horiz-adv-x="1510" d="M164 0V1434H672Q1436 1434 1436 735Q1436 400 1228 200T672 0H164ZM487 1171V262H647Q857 262 976 388T1096 731Q1096 936 978 1053T645 1171H487Z"/><glyph unicode="E" horiz-adv-x="1090" d="M1024 0H164V1434H991V1171H487V852H956V590H487V262H1024V0Z"/><glyph unicode="F" horiz-adv-x="1065" d="M993 1171H487V819H952V557H487V0H164V1434H993V1171Z"/><glyph unicode="G" horiz-adv-x="1456" d="M1341 96Q1131 -25 819 -25Q473 -25 274 166T74 694Q74 1032 292 1245T872 1458Q1100 1458 1274 1395V1092Q1108 1188 868 1188Q667 1188 541 1058T414 709Q414 488 527 367T834 246Q950 246 1018 279V559H731V817H1341V96Z"/><glyph unicode="H" horiz-adv-x="1569" d="M1405 0H1081V584H487V0H164V1434H487V862H1081V1434H1405V0Z"/><glyph unicode="I" horiz-adv-x="649" d="M607 1434V1184H487V250H607V0H44V250H164V1184H44V1434H607Z"/><glyph unicode="J" horiz-adv-x="912" d="M762 569Q762 281 629 128T242 -25Q129 -25 33 14V317Q116 254 219 254Q440 254 440 582V1434H762V569Z"/><glyph unicode="K" horiz-adv-x="1329" d="M1356 0H948L530 623Q518 641 492 702H487V0H164V1434H487V756H492Q504 784 532 836L928 1434H1313L813 750L1356 0Z"/><glyph unicode="L" horiz-adv-x="1047" d="M1018 0H164V1434H487V262H1018V0Z"/><glyph unicode="M" horiz-adv-x="1960" d="M1798 0H1479V858Q1479 997 1491 1165H1483Q1458 1033 1438 975L1102 0H838L496 965Q482 1004 451 1165H442Q455 953 455 793V0H164V1434H637L930 584Q965 482 981 379H987Q1014 498 1044 586L1337 1434H1798V0Z"/><glyph unicode="N" horiz-adv-x="1618" d="M1454 0H1128L537 901Q485 980 465 1020H461Q469 944 469 788V0H164V1434H512L1081 561Q1120 502 1153 444H1157Q1149 494 1149 641V1434H1454V0Z"/><glyph unicode="O" horiz-adv-x="1553" d="M770 -25Q462 -25 268 175T74 698Q74 1038 271 1248T793 1458Q1100 1458 1289 1257T1479 727Q1479 389 1283 182T770 -25ZM784 1180Q614 1180 514 1053T414 715Q414 502 514 378T776 254Q943 254 1041 374T1139 709Q1139 932 1044 1056T784 1180Z"/><glyph unicode="P" horiz-adv-x="1258" d="M487 494V0H164V1434H670Q1212 1434 1212 977Q1212 761 1057 628T641 494H487ZM487 1186V739H614Q872 739 872 965Q872 1186 614 1186H487Z"/><glyph unicode="Q" horiz-adv-x="1553" d="M784 1180Q615 1180 514 1052Q414 925 414 715Q414 503 513 378Q613 254 776 254Q944 254 1041 374Q1139 496 1139 709Q1139 930 1045 1054Q951 1180 784 1180ZM1040 27Q1092 -29 1139 -65T1233 -122T1331 -151T1440 -159Q1456 -159 1475 -158T1513 -153T1551 -145T1584 -134V-406Q1552 -415 1496 -424T1358 -433Q1260 -433 1178 -401T1020 -314T873 -183T724 -22Q577 -18 457 39T252 192T121 419T74 698Q74 1039 270 1248Q467 1458 795 1458Q1100 1458 1289 1256Q1479 1056 1479 727Q1479 470 1363 285Q1247 102 1040 27Z"/><glyph unicode="R" horiz-adv-x="1337" d="M1367 0H996L773 369Q748 411 725 444T679 500T630 536T574 549H487V0H164V1434H676Q1198 1434 1198 1044Q1198 969 1175 906T1110 791T1009 703T876 645V641Q908 631 938 609T996 556T1049 492T1096 424L1367 0ZM487 1192V793H627Q731 793 794 853Q858 914 858 1004Q858 1192 633 1192H487Z"/><glyph unicode="S" horiz-adv-x="1148" d="M98 55V375Q185 302 287 266T493 229Q554 229 599 240T675 270T721 316T736 374Q736 416 712 449T647 510T548 564T425 617Q257 687 175 788T92 1032Q92 1144 137 1224T259 1357T439 1433T655 1458Q767 1458 853 1445T1013 1403V1104Q977 1129 935 1148T847 1179T758 1198T673 1204Q618 1204 573 1194T497 1164T449 1119T432 1059Q432 1023 451 995T505 941T590 891T703 840Q789 804 857 764T975 672T1050 556T1076 403Q1076 283 1031 202T907 70T726 -3T507 -25Q389 -25 283 -5T98 55Z"/><glyph unicode="T" horiz-adv-x="1200" d="M1171 1171H762V0H438V1171H31V1434H1171V1171Z"/><glyph unicode="U" horiz-adv-x="1481" d="M1333 621Q1333 -25 731 -25Q147 -25 147 606V1434H471V602Q471 254 743 254Q1010 254 1010 590V1434H1333V621Z"/><glyph unicode="V" horiz-adv-x="1366" d="M1358 1434L864 0H498L10 1434H358L657 436Q681 355 686 293H692Q699 360 723 440L1020 1434H1358Z"/><glyph unicode="W" horiz-adv-x="2058" d="M2040 1434L1661 0H1303L1065 920Q1046 992 1042 1081H1038Q1029 983 1012 920L768 0H395L18 1434H371L573 479Q586 418 592 315H598Q602 392 627 483L887 1434H1233L1468 471Q1481 418 1491 317H1495Q1499 396 1516 477L1714 1434H2040Z"/><glyph unicode="X" horiz-adv-x="1342" d="M1335 0H952L705 467Q691 493 676 563H672Q665 530 639 463L391 0H6L463 717L45 1434H438L643 1004Q667 953 686 883H690Q702 925 735 1008L963 1434H1323L893 723L1335 0Z"/><glyph unicode="Y" horiz-adv-x="1243" d="M1245 1434L778 510V0H455V504L0 1434H369L600 899Q606 884 633 782H637Q650 854 668 895L903 1434H1245Z"/><glyph unicode="Z" horiz-adv-x="1243" d="M1196 0H41V186L776 1171H94V1434H1194V1253L475 262H1196V0Z"/><glyph unicode="[" horiz-adv-x="756" d="M686 -326H217V1434H686V1233H477V-125H686V-326Z"/><glyph unicode="\" horiz-adv-x="893" d="M961 -238H682L0 1434H281L961 -238Z"/><glyph unicode="]" horiz-adv-x="756" d="M541 -326H70V-125H281V1233H70V1434H541V-326Z"/><glyph unicode="^" horiz-adv-x="1448" d="M1249 610H1006L719 1196H715L444 610H203L633 1458H795L1249 610Z"/><glyph unicode="_" horiz-adv-x="850" d="M850 -297H0V-178H850V-297Z"/><glyph unicode="`" horiz-adv-x="643" d="M596 1186H369L55 1509H336L596 1186Z"/><glyph unicode="a" horiz-adv-x="1102" d="M985 0H686V147H682Q579 -25 377 -25Q228 -25 143 59T57 285Q57 583 410 629L688 666Q688 834 506 834Q323 834 158 725V963Q224 997 338 1023T547 1049Q985 1049 985 612V0ZM688 416V485L502 461Q348 441 348 322Q348 268 385 234T487 199Q576 199 632 260T688 416Z"/><glyph unicode="b" horiz-adv-x="1270" d="M453 119H449V0H133V1516H449V870H453Q570 1049 786 1049Q984 1049 1091 913T1198 541Q1198 285 1073 130T739 -25Q550 -25 453 119ZM444 551V446Q444 347 501 282T647 217Q755 217 814 300T874 537Q874 664 820 735T664 807Q569 807 507 736T444 551Z"/><glyph unicode="c" horiz-adv-x="983" d="M909 37Q802 -25 600 -25Q364 -25 218 118T72 487Q72 748 228 898T647 1049Q828 1049 909 1001V733Q810 807 688 807Q552 807 473 728T393 508Q393 372 469 295T678 217Q796 217 909 291V37Z"/><glyph unicode="d" horiz-adv-x="1268" d="M1135 0H819V141H815Q707 -25 498 -25Q306 -25 189 110T72 489Q72 743 201 896T539 1049Q737 1049 815 907H819V1516H1135V0ZM825 498V575Q825 675 767 741T616 807Q511 807 452 725T393 498Q393 363 450 290T608 217Q704 217 764 294T825 498Z"/><glyph unicode="e" horiz-adv-x="1108" d="M1053 422H385Q401 199 666 199Q835 199 963 279V51Q821 -25 594 -25Q346 -25 209 112T72 496Q72 751 220 900T584 1049Q808 1049 930 916T1053 555V422ZM760 616Q760 836 582 836Q506 836 451 773T383 616H760Z"/><glyph unicode="f" horiz-adv-x="785" d="M801 1274Q740 1298 684 1298Q532 1298 532 1133V1024H766V791H532V0H217V791H45V1024H217V1151Q217 1326 331 1433T641 1540Q737 1540 801 1520V1274Z"/><glyph unicode="g" horiz-adv-x="1268" d="M1137 117Q1137 -168 972 -324T494 -481Q287 -481 166 -422V-156Q324 -248 485 -248Q645 -248 733 -164T821 66V147H817Q709 -25 498 -25Q302 -25 187 113T72 483Q72 743 200 896T537 1049Q724 1049 817 905H821V1024H1137V117ZM825 492V573Q825 670 768 738T618 807Q513 807 453 725T393 494Q393 366 450 292T606 217Q704 217 764 292T825 492Z"/><glyph unicode="h" horiz-adv-x="1233" d="M1116 0H801V582Q801 807 637 807Q553 807 501 744T449 584V0H133V1516H449V872H453Q569 1049 768 1049Q1116 1049 1116 629V0Z"/><glyph unicode="i" horiz-adv-x="582" d="M293 1186Q213 1186 162 1233T111 1350Q111 1421 162 1466T293 1511Q374 1511 424 1466T475 1350Q475 1278 425 1232T293 1186ZM449 0H133V1024H449V0Z"/><glyph unicode="j" horiz-adv-x="582" d="M293 1186Q213 1186 162 1233T111 1350Q111 1421 162 1466T293 1511Q374 1511 424 1466T475 1350Q475 1278 425 1232T293 1186ZM449 18Q449 -209 338 -345T18 -481Q-51 -481 -133 -451V-203Q-67 -240 -16 -240Q133 -240 133 -6V1024H449V18Z"/><glyph unicode="k" horiz-adv-x="1145" d="M1159 0H780L453 508H449V0H133V1516H449V551H453L758 1024H1133L766 543L1159 0Z"/><glyph unicode="l" horiz-adv-x="582" d="M449 0H133V1516H449V0Z"/><glyph unicode="m" horiz-adv-x="1876" d="M1759 0H1444V584Q1444 807 1280 807Q1202 807 1153 740T1104 573V0H788V590Q788 807 627 807Q546 807 498 743T449 569V0H133V1024H449V864H453Q502 946 590 997T784 1049Q1001 1049 1081 858Q1198 1049 1425 1049Q1759 1049 1759 637V0Z"/><glyph unicode="n" horiz-adv-x="1239" d="M1122 0H807V569Q807 807 637 807Q555 807 502 744T449 584V0H133V1024H449V862H453Q566 1049 782 1049Q1122 1049 1122 627V0Z"/><glyph unicode="o" horiz-adv-x="1252" d="M621 -25Q365 -25 219 118T72 508Q72 762 224 905T635 1049Q890 1049 1035 906T1180 526Q1180 271 1031 123T621 -25ZM629 807Q517 807 455 730T393 512Q393 217 631 217Q858 217 858 520Q858 807 629 807Z"/><glyph unicode="p" horiz-adv-x="1270" d="M453 119H449V-471H133V1024H449V870H453Q570 1049 782 1049Q981 1049 1089 913T1198 541Q1198 285 1072 130T735 -25Q550 -25 453 119ZM444 539V457Q444 351 500 284T647 217Q755 217 814 300T874 537Q874 807 664 807Q567 807 506 734T444 539Z"/><glyph unicode="q" horiz-adv-x="1268" d="M1135 -471H819V141H815Q708 -25 500 -25Q307 -25 190 109T72 487Q72 743 201 896T537 1049Q725 1049 815 905H819V1024H1135V-471ZM825 489V571Q825 671 767 739T618 807Q513 807 453 725T393 496Q393 365 451 291T604 217Q704 217 764 292T825 489Z"/><glyph unicode="r" horiz-adv-x="815" d="M801 739Q744 770 668 770Q565 770 507 695T449 489V0H133V1024H449V834H453Q528 1042 723 1042Q773 1042 801 1030V739Z"/><glyph unicode="s" horiz-adv-x="901" d="M66 27V283Q144 236 221 213T368 190Q452 190 500 213T549 283Q549 313 527 333T471 368T395 395T316 422Q255 445 209 471T131 533T83 614T66 723Q66 809 103 871T203 972T346 1030T514 1049Q582 1049 652 1039T790 1008V764Q730 799 662 816T527 834Q496 834 469 829T420 813T387 786T375 748Q375 720 393 700T440 666T504 640T575 616Q638 594 689 568T776 507T832 425T852 313Q852 222 813 158T708 53T557 -6T379 -25Q210 -25 66 27Z"/><glyph unicode="t" horiz-adv-x="797" d="M752 12Q682 -25 541 -25Q207 -25 207 322V791H41V1024H207V1245L522 1335V1024H752V791H522V377Q522 217 649 217Q699 217 752 246V12Z"/><glyph unicode="u" horiz-adv-x="1239" d="M1106 0H791V156H786Q669 -25 473 -25Q117 -25 117 406V1024H432V434Q432 217 604 217Q689 217 740 276T791 438V1024H1106V0Z"/><glyph unicode="v" horiz-adv-x="1110" d="M1108 1024L727 0H367L4 1024H342L520 393Q550 286 555 211H559Q566 282 596 387L778 1024H1108Z"/><glyph unicode="w" horiz-adv-x="1633" d="M1616 1024L1321 0H989L838 600Q823 660 821 731H815Q808 653 795 604L633 0H305L16 1024H338L479 356Q489 309 494 242H500Q505 312 518 360L694 1024H995L1153 356Q1159 331 1167 240H1174Q1179 298 1190 356L1323 1024H1616Z"/><glyph unicode="x" horiz-adv-x="1131" d="M1122 1024L784 528L1120 0H756L608 276Q590 309 565 369H561Q546 327 520 279L371 0H8L354 510L29 1024H395L541 737Q570 680 582 641H586Q602 688 629 739L778 1024H1122Z"/><glyph unicode="y" horiz-adv-x="1102" d="M1108 1024L692 -82Q542 -481 240 -481Q125 -481 51 -455V-203Q114 -240 188 -240Q310 -240 358 -125L412 2L-4 1024H346L537 401Q555 343 565 264H569Q578 322 602 399L795 1024H1108Z"/><glyph unicode="z" horiz-adv-x="981" d="M944 0H25V131L539 791H76V1024H940V868L453 233H944V0Z"/><glyph unicode="{" horiz-adv-x="756" d="M674 -326Q456 -326 357 -246T258 39V279Q258 463 106 463V647Q258 647 258 838V1061Q258 1267 356 1350T674 1434V1247Q514 1247 514 1073V860Q514 620 360 557V553Q514 491 514 246V41Q514 -57 551 -98T674 -139V-326Z"/><glyph unicode="|" horiz-adv-x="668" d="M461 -481H209V1567H461V-481Z"/><glyph unicode="}" horiz-adv-x="756" d="M651 463Q498 463 498 276V45Q498 -166 401 -246T84 -326V-139Q168 -139 206 -99T244 39V252Q244 491 397 551V555Q244 618 244 868V1073Q244 1247 84 1247V1434Q302 1434 400 1351T498 1065V836Q498 647 651 647V463Z"/><glyph unicode="~" horiz-adv-x="1448" d="M1255 772Q1249 604 1166 506T942 408Q836 408 684 496Q575 559 528 559Q405 559 399 399H195Q201 568 284 666T512 764Q624 764 750 688Q880 610 930 610Q982 610 1015 654T1051 772H1255Z"/><glyph unicode=" " horiz-adv-x="565"/><glyph unicode="¡" horiz-adv-x="670" d="M336 721Q255 721 204 767T152 883Q152 955 203 1002T336 1049Q415 1049 466 1001T518 883Q518 811 467 766T336 721ZM504 -408H172L209 582H465L504 -408Z"/><glyph unicode="¢" horiz-adv-x="1178" d="M1004 207Q931 165 823 152V-37H662V147Q446 159 308 298T170 657Q170 891 304 1038T662 1210V1421H823V1214Q933 1208 1004 1169V897Q928 955 823 967V393Q931 410 1004 461V207ZM662 399V958Q467 899 467 678Q467 456 662 399Z"/><glyph unicode="£" horiz-adv-x="1178" d="M1114 0H143V227Q336 279 336 496V612H164V829H336V1016Q336 1214 458 1336T788 1458Q915 1458 1022 1409V1151Q924 1217 813 1217Q629 1217 629 987V829H897V612H629V526Q629 342 477 242H1114V0Z"/><glyph unicode="¤" horiz-adv-x="1139" d="M1087 358L946 213L803 354Q698 289 569 289Q442 289 336 354L193 213L51 358L193 496Q127 606 127 725Q127 846 193 954L51 1094L193 1239L336 1098Q442 1163 569 1163Q698 1163 803 1098L946 1239L1087 1094L946 954Q1014 843 1014 725Q1014 610 946 496L1087 358ZM569 965Q469 965 400 896T330 727Q330 628 399 559T569 489Q669 489 740 558T811 727Q811 825 738 895T569 965Z"/><glyph unicode="¥" horiz-adv-x="1178" d="M1157 1434L803 793H1055V604H750V451H1055V262H750V0H442V262H127V451H442V604H127V793H383L41 1434H362L608 864H612Q616 875 649 954L852 1434H1157Z"/><glyph unicode="¦" horiz-adv-x="668" d="M461 684H209V1567H461V684ZM461 -481H209V414H461V-481Z"/><glyph unicode="§" horiz-adv-x="994" d="M752 434Q834 359 834 260Q834 111 726 23T440 -66Q277 -66 150 2V250Q330 145 461 145Q588 145 588 244Q588 305 492 352Q351 417 282 464T172 581T131 731Q131 874 256 965Q168 1053 168 1180Q168 1320 270 1405T545 1491Q684 1491 805 1436V1186Q666 1282 545 1282Q422 1282 422 1188Q422 1143 462 1111T647 1014Q901 902 901 705Q901 538 752 434ZM432 864Q367 826 367 754Q367 697 418 652T596 553Q662 597 662 676Q662 738 609 776T432 864Z"/><glyph unicode="¨" horiz-adv-x="946" d="M698 1186Q631 1186 588 1225T545 1323Q545 1384 588 1422T698 1460Q765 1460 808 1422T852 1323Q852 1263 809 1225T698 1186ZM240 1186Q172 1186 129 1225T86 1323Q86 1383 130 1421T240 1460Q308 1460 350 1422T393 1323Q393 1262 351 1224T240 1186Z"/><glyph unicode="©" horiz-adv-x="1790" d="M893 -25Q560 -25 346 182T131 713Q131 1030 351 1244T901 1458Q1229 1458 1445 1250T1661 717Q1661 400 1440 188T893 -25ZM897 1346Q622 1346 443 1166T264 717Q264 445 445 267T897 88Q1162 88 1345 267T1528 715Q1528 987 1348 1166T897 1346ZM1204 295Q1079 227 930 227Q721 227 584 361T446 696Q446 927 589 1066T963 1206Q1088 1206 1202 1151V915Q1104 991 958 991Q843 991 766 915T688 709Q688 587 766 512T965 436Q1106 436 1204 512V295Z"/><glyph unicode="ª" horiz-adv-x="840" d="M739 717H526V803H522Q435 696 303 696Q202 696 137 757T72 915Q72 1126 334 1159L526 1184Q526 1298 387 1298Q269 1298 141 1221V1397Q265 1454 428 1454Q739 1454 739 1155V717ZM526 985V1055L403 1038Q287 1022 287 942Q287 854 391 854Q445 854 485 892T526 985Z"/><glyph unicode="«" horiz-adv-x="1190" d="M1137 201H868L541 537L868 881H1137L803 537L1137 201ZM651 201H383L53 537L383 881H649L315 537L651 201Z"/><glyph unicode="¬" horiz-adv-x="1448" d="M1212 266H1010V655H238V858H1212V266Z"/><glyph unicode="­" horiz-adv-x="828" d="M690 436H143V657H690V436Z"/><glyph unicode="®" horiz-adv-x="1790" d="M893 -25Q560 -25 346 182T131 713Q131 1030 351 1244T901 1458Q1229 1458 1445 1250T1661 717Q1661 400 1440 188T893 -25ZM897 1346Q622 1346 443 1166T264 717Q264 445 445 267T897 88Q1162 88 1345 267T1528 715Q1528 987 1348 1166T897 1346ZM1288 264H1034L958 496Q918 618 848 618H774V264H563V1186H883Q1253 1186 1253 924Q1253 735 1036 680V676Q1126 656 1178 530L1288 264ZM774 1010V780H885Q1024 780 1024 899Q1024 1010 864 1010H774Z"/><glyph unicode="¯" horiz-adv-x="850" d="M850 1396H0V1516H850V1396Z"/><glyph unicode="°" horiz-adv-x="778" d="M399 895Q280 895 198 977T115 1178Q115 1296 197 1377T399 1458Q517 1458 600 1377T684 1178Q684 1060 601 978T399 895ZM399 1307Q345 1307 308 1270T270 1178Q270 1124 307 1086T399 1047Q452 1047 490 1085T528 1178Q528 1232 491 1269T399 1307Z"/><glyph unicode="±" horiz-adv-x="1448" d="M1212 694H827V307H625V694H242V897H625V1288H827V897H1212V694ZM1210 0H238V203H1210V0Z"/><glyph unicode="²" horiz-adv-x="828" d="M721 884H117V1041L365 1275Q442 1348 460 1385T479 1467Q479 1509 451 1536T375 1564Q277 1564 164 1461V1676Q282 1754 414 1754Q550 1754 629 1686T709 1496Q709 1426 672 1355T492 1158L387 1066V1062H721V884Z"/><glyph unicode="³" horiz-adv-x="828" d="M131 916V1097Q238 1029 352 1029Q502 1029 502 1131Q502 1234 330 1234H213V1400H326Q475 1400 475 1496Q475 1586 356 1586Q249 1586 158 1521V1697Q257 1754 397 1754Q531 1754 608 1694T686 1533Q686 1386 543 1338V1334Q715 1293 715 1136Q715 1013 617 938T360 863Q227 863 131 916Z"/><glyph unicode="´" horiz-adv-x="621" d="M596 1509L283 1186H55L315 1509H596Z"/><glyph unicode="µ" horiz-adv-x="1255" d="M1161 0H837Q812 70 812 154H808Q751 -23 592 -23Q495 -23 452 41H449V-395H133V1024H449V435Q449 228 619 228Q803 228 803 482V1024H1122V314Q1122 78 1161 0Z"/><glyph unicode="¶" horiz-adv-x="1043" d="M946 1272H829V0H655V1272H537V0H360V836Q245 843 169 928T92 1139Q92 1268 177 1351T389 1434H946V1272Z"/><glyph unicode="·" horiz-adv-x="555" d="M274 487Q196 487 144 535T92 653Q92 725 145 771T279 817Q360 817 411 771T463 653Q463 580 411 534T274 487Z"/><glyph unicode="¸" horiz-adv-x="441" d="M51 -451V-313Q86 -319 123 -319Q246 -319 246 -246Q246 -180 135 -180Q122 -180 98 -182V0H270V-82Q457 -90 457 -248Q457 -455 139 -455Q93 -455 51 -451Z"/><glyph unicode="¹" horiz-adv-x="807" d="M721 884H158V1056H334V1533L143 1492V1672L549 1754V1056H721V884Z"/><glyph unicode="º" horiz-adv-x="934" d="M459 696Q274 696 172 795T70 1073Q70 1252 178 1353T471 1454Q652 1454 755 1353T858 1087Q858 903 752 800T459 696ZM465 1280Q301 1280 301 1077Q301 870 465 870Q625 870 625 1079Q625 1280 465 1280Z"/><glyph unicode="»" horiz-adv-x="1190" d="M1137 537L809 201H541L874 537L543 881H809L1137 537ZM651 537L322 201H53L389 537L55 881H322L651 537Z"/><glyph unicode="¼" horiz-adv-x="1950" d="M932 584H369V756H545V1233L354 1192V1372L760 1454V756H932V584ZM1505 1434L614 0H370L1261 1434H1505ZM1845 176H1735V0H1522V176H1127V317L1477 850H1735V331H1845V176ZM1526 678H1518Q1504 642 1479 602L1311 331H1522V594Q1522 641 1526 678Z"/><glyph unicode="½" horiz-adv-x="1977" d="M932 584H369V756H545V1233L354 1192V1372L760 1454V756H932V584ZM1506 1434L615 0H371L1262 1434H1506ZM1843 0H1239V157L1487 391Q1564 464 1582 501T1601 583Q1601 625 1573 652T1497 680Q1399 680 1286 577V792Q1404 870 1536 870Q1672 870 1751 802T1831 612Q1831 542 1794 471T1614 274L1509 182V178H1843V0Z"/><glyph unicode="¾" horiz-adv-x="2005" d="M131 616V797Q238 729 352 729Q502 729 502 831Q502 934 330 934H213V1100H326Q475 1100 475 1196Q475 1286 356 1286Q249 1286 158 1221V1397Q257 1454 397 1454Q531 1454 608 1394T686 1233Q686 1086 543 1038V1034Q715 993 715 836Q715 713 617 638T360 563Q227 563 131 616ZM1565 1434L674 0H430L1321 1434H1565ZM1892 176H1782V0H1569V176H1174V317L1524 850H1782V331H1892V176ZM1573 678H1565Q1551 642 1526 602L1358 331H1569V594Q1569 641 1573 678Z"/><glyph unicode="¿" horiz-adv-x="897" d="M647 611Q657 585 662 553T668 491Q668 445 659 407T632 336T587 272T524 211Q487 179 458 152T409 97T379 40T369 -26Q369 -57 380 -83T411 -129T461 -159T527 -170Q605 -170 689 -138T848 -39V-340Q771 -386 680 -409T492 -432Q399 -432 319 -412T180 -347T87 -235T53 -70Q53 -9 67 40T108 134T175 218T267 302Q302 331 328 356T372 405T399 457T408 520Q408 544 402 569T384 611H647ZM501 1049Q582 1049 634 1001Q687 951 687 883Q687 813 634 766Q581 719 501 719Q422 719 370 766Q318 812 318 883Q318 956 369 1002Q421 1049 501 1049Z"/><glyph unicode="À" horiz-adv-x="1440" d="M1425 0H1073L971 319H461L360 0H10L532 1434H915L1425 0ZM897 567L743 1049Q726 1103 719 1178H711Q706 1115 686 1053L530 567H897ZM916 1567H689L375 1890H656L916 1567Z"/><glyph unicode="Á" horiz-adv-x="1440" d="M1425 0H1073L971 319H461L360 0H10L532 1434H915L1425 0ZM897 567L743 1049Q726 1103 719 1178H711Q706 1115 686 1053L530 567H897ZM1036 1890L723 1567H495L755 1890H1036Z"/><glyph unicode="Â" horiz-adv-x="1440" d="M1425 0H1073L971 319H461L360 0H10L532 1434H915L1425 0ZM897 567L743 1049Q726 1103 719 1178H711Q706 1115 686 1053L530 567H897ZM1078 1567H871L713 1755L566 1567H359L594 1892H842L1078 1567Z"/><glyph unicode="Ã" horiz-adv-x="1440" d="M1425 0H1073L971 319H461L360 0H10L532 1434H915L1425 0ZM897 567L743 1049Q726 1103 719 1178H711Q706 1115 686 1053L530 567H897ZM1077 1878Q1077 1738 1022 1662T870 1585Q784 1585 702 1628Q613 1675 579 1675Q499 1675 499 1567H358Q358 1706 413 1783T567 1860Q648 1860 735 1811Q814 1767 855 1767Q933 1767 933 1878H1077Z"/><glyph unicode="Ä" horiz-adv-x="1440" d="M1425 0H1073L971 319H461L360 0H10L532 1434H915L1425 0ZM897 567L743 1049Q726 1103 719 1178H711Q706 1115 686 1053L530 567H897ZM945 1567Q878 1567 835 1606T792 1704Q792 1765 835 1803T945 1841Q1012 1841 1055 1803T1099 1704Q1099 1644 1056 1606T945 1567ZM487 1567Q419 1567 376 1606T333 1704Q333 1764 377 1802T487 1841Q555 1841 597 1803T640 1704Q640 1643 598 1605T487 1567Z"/><glyph unicode="Å" horiz-adv-x="1440" d="M1425 0H1073L971 319H461L360 0H10L522 1407Q469 1461 469 1544Q469 1650 542 1713T723 1776Q837 1776 907 1713T977 1548Q977 1468 924 1411L1425 0ZM719 1645Q672 1645 644 1617T616 1546Q616 1448 719 1448Q767 1448 796 1476T825 1546Q825 1589 796 1617T719 1645ZM893 584L741 1049Q728 1089 719 1169H711Q704 1101 688 1053L535 584H893Z"/><glyph unicode="Æ" horiz-adv-x="1915" d="M1849 0H991V319H520L373 0H-2L723 1434H1817V1171H1313V852H1782V590H1313V262H1849V0ZM991 567V1171H913L631 567H991Z"/><glyph unicode="Ç" horiz-adv-x="1278" d="M1192 51Q1035 -25 782 -25Q452 -25 263 169T74 686Q74 1030 286 1244T838 1458Q1048 1458 1192 1405V1094Q1048 1180 864 1180Q662 1180 538 1053T414 709Q414 501 531 378T846 254Q1035 254 1192 346V51ZM610 -451V-313Q645 -319 682 -319Q805 -319 805 -246Q805 -180 694 -180Q681 -180 657 -182V0H829V-82Q1016 -90 1016 -248Q1016 -455 698 -455Q652 -455 610 -451Z"/><glyph unicode="È" horiz-adv-x="1090" d="M1024 0H164V1434H991V1171H487V852H956V590H487V262H1024V0ZM766 1567H539L225 1890H506L766 1567Z"/><glyph unicode="É" horiz-adv-x="1090" d="M1024 0H164V1434H991V1171H487V852H956V590H487V262H1024V0ZM934 1890L621 1567H393L653 1890H934Z"/><glyph unicode="Ê" horiz-adv-x="1090" d="M1024 0H164V1434H991V1171H487V852H956V590H487V262H1024V0ZM932 1567H725L567 1755L420 1567H213L448 1892H696L932 1567Z"/><glyph unicode="Ë" horiz-adv-x="1090" d="M1024 0H164V1434H991V1171H487V852H956V590H487V262H1024V0ZM812 1567Q745 1567 702 1606T659 1704Q659 1765 702 1803T812 1841Q879 1841 922 1803T966 1704Q966 1644 923 1606T812 1567ZM354 1567Q286 1567 243 1606T200 1704Q200 1764 244 1802T354 1841Q422 1841 464 1803T507 1704Q507 1643 465 1605T354 1567Z"/><glyph unicode="Ì" horiz-adv-x="649" d="M607 1434V1184H487V250H607V0H44V250H164V1184H44V1434H607ZM532 1567H305L-9 1890H272L532 1567Z"/><glyph unicode="Í" horiz-adv-x="649" d="M607 1434V1184H487V250H607V0H44V250H164V1184H44V1434H607ZM651 1890L338 1567H110L370 1890H651Z"/><glyph unicode="Î" horiz-adv-x="649" d="M607 1434V1184H487V250H607V0H44V250H164V1184H44V1434H607ZM691 1567H484L326 1755L179 1567H-28L207 1892H455L691 1567Z"/><glyph unicode="Ï" horiz-adv-x="649" d="M607 1434V1184H487V250H607V0H44V250H164V1184H44V1434H607ZM559 1567Q492 1567 449 1606T406 1704Q406 1765 449 1803T559 1841Q626 1841 669 1803T713 1704Q713 1644 670 1606T559 1567ZM101 1567Q33 1567 -10 1606T-53 1704Q-53 1764 -9 1802T101 1841Q169 1841 211 1803T254 1704Q254 1643 212 1605T101 1567Z"/><glyph unicode="Ð" horiz-adv-x="1510" d="M164 0V586H0V852H164V1434H672Q1436 1434 1436 735Q1436 400 1228 200T672 0H164ZM487 1171V852H758V586H487V262H647Q857 262 976 388T1096 731Q1096 936 978 1053T645 1171H487Z"/><glyph unicode="Ñ" horiz-adv-x="1618" d="M1454 0H1128L537 901Q485 980 465 1020H461Q469 944 469 788V0H164V1434H512L1081 561Q1120 502 1153 444H1157Q1149 494 1149 641V1434H1454V0ZM1206 1878Q1206 1738 1151 1662T999 1585Q913 1585 831 1628Q742 1675 708 1675Q628 1675 628 1567H487Q487 1706 542 1783T696 1860Q777 1860 864 1811Q943 1767 984 1767Q1062 1767 1062 1878H1206Z"/><glyph unicode="Ò" horiz-adv-x="1552" d="M770 -25Q462 -25 268 175T74 698Q74 1038 271 1248T793 1458Q1100 1458 1289 1257T1479 727Q1479 389 1283 182T770 -25ZM784 1180Q614 1180 514 1053T414 715Q414 502 514 378T776 254Q943 254 1041 374T1139 709Q1139 932 1044 1056T784 1180ZM971 1567H744L430 1890H711L971 1567Z"/><glyph unicode="Ó" horiz-adv-x="1552" d="M770 -25Q462 -25 268 175T74 698Q74 1038 271 1248T793 1458Q1100 1458 1289 1257T1479 727Q1479 389 1283 182T770 -25ZM784 1180Q614 1180 514 1053T414 715Q414 502 514 378T776 254Q943 254 1041 374T1139 709Q1139 932 1044 1056T784 1180ZM1110 1890L797 1567H569L829 1890H1110Z"/><glyph unicode="Ô" horiz-adv-x="1552" d="M770 -25Q462 -25 268 175T74 698Q74 1038 271 1248T793 1458Q1100 1458 1289 1257T1479 727Q1479 389 1283 182T770 -25ZM784 1180Q614 1180 514 1053T414 715Q414 502 514 378T776 254Q943 254 1041 374T1139 709Q1139 932 1044 1056T784 1180ZM1149 1567H942L784 1755L637 1567H430L665 1892H913L1149 1567Z"/><glyph unicode="Õ" horiz-adv-x="1552" d="M770 -25Q462 -25 268 175T74 698Q74 1038 271 1248T793 1458Q1100 1458 1289 1257T1479 727Q1479 389 1283 182T770 -25ZM784 1180Q614 1180 514 1053T414 715Q414 502 514 378T776 254Q943 254 1041 374T1139 709Q1139 932 1044 1056T784 1180ZM1147 1878Q1147 1738 1092 1662T940 1585Q854 1585 772 1628Q683 1675 649 1675Q569 1675 569 1567H428Q428 1706 483 1783T637 1860Q718 1860 805 1811Q884 1767 925 1767Q1003 1767 1003 1878H1147Z"/><glyph unicode="Ö" horiz-adv-x="1552" d="M770 -25Q462 -25 268 175T74 698Q74 1038 271 1248T793 1458Q1100 1458 1289 1257T1479 727Q1479 389 1283 182T770 -25ZM784 1180Q614 1180 514 1053T414 715Q414 502 514 378T776 254Q943 254 1041 374T1139 709Q1139 932 1044 1056T784 1180ZM1004 1567Q937 1567 894 1606T851 1704Q851 1765 894 1803T1004 1841Q1071 1841 1114 1803T1158 1704Q1158 1644 1115 1606T1004 1567ZM546 1567Q478 1567 435 1606T392 1704Q392 1764 436 1802T546 1841Q614 1841 656 1803T699 1704Q699 1643 657 1605T546 1567Z"/><glyph unicode="×" horiz-adv-x="1448" d="M1210 248L1065 104L727 444L387 104L242 250L582 586L242 926L383 1071L727 731L1069 1071L1208 920L870 586L1210 248Z"/><glyph unicode="Ø" horiz-adv-x="1553" d="M348 109L205 -61L80 43L229 219Q74 411 74 698Q74 1038 270 1248T793 1458Q1027 1458 1194 1339L1323 1489L1448 1386L1313 1229Q1479 1033 1479 727Q1479 389 1283 182T770 -25Q530 -25 348 109ZM1016 1130Q919 1206 784 1206Q603 1206 497 1070T391 709Q391 563 438 457L1016 1130ZM1110 995L532 319Q633 227 776 227Q951 227 1057 355T1163 707Q1163 871 1110 995Z"/><glyph unicode="Ù" horiz-adv-x="1481" d="M1333 621Q1333 -25 731 -25Q147 -25 147 606V1434H471V602Q471 254 743 254Q1010 254 1010 590V1434H1333V621ZM920 1567H693L379 1890H660L920 1567Z"/><glyph unicode="Ú" horiz-adv-x="1481" d="M1333 621Q1333 -25 731 -25Q147 -25 147 606V1434H471V602Q471 254 743 254Q1010 254 1010 590V1434H1333V621ZM1088 1890L775 1567H547L807 1890H1088Z"/><glyph unicode="Û" horiz-adv-x="1481" d="M1333 621Q1333 -25 731 -25Q147 -25 147 606V1434H471V602Q471 254 743 254Q1010 254 1010 590V1434H1333V621ZM1099 1567H892L734 1755L587 1567H380L615 1892H863L1099 1567Z"/><glyph unicode="Ü" horiz-adv-x="1481" d="M1333 621Q1333 -25 731 -25Q147 -25 147 606V1434H471V602Q471 254 743 254Q1010 254 1010 590V1434H1333V621ZM969 1567Q902 1567 859 1606T816 1704Q816 1765 859 1803T969 1841Q1036 1841 1079 1803T1123 1704Q1123 1644 1080 1606T969 1567ZM511 1567Q443 1567 400 1606T357 1704Q357 1764 401 1802T511 1841Q579 1841 621 1803T664 1704Q664 1643 622 1605T511 1567Z"/><glyph unicode="Ý" horiz-adv-x="1243" d="M1245 1434L778 510V0H455V504L0 1434H369L600 899Q606 884 633 782H637Q650 854 668 895L903 1434H1245ZM903 1857L590 1534H362L622 1857H903Z"/><glyph unicode="Þ" horiz-adv-x="1258" d="M487 281V0H164V1434H487V1223H670Q1212 1223 1212 766Q1212 550 1057 416T641 281H487ZM487 975V528H614Q872 528 872 754Q872 975 614 975H487Z"/><glyph unicode="ß" horiz-adv-x="1286" d="M545 8V270Q628 217 721 217Q804 217 853 269T903 414Q903 530 814 597T563 670V891Q674 899 735 959T797 1118Q797 1202 753 1250T633 1298Q449 1298 449 1053V0H133V1049Q133 1272 270 1406T651 1540Q868 1540 994 1431T1120 1149Q1120 1027 1049 935T864 809V805Q1227 736 1227 406Q1227 226 1101 101T758 -25Q653 -25 545 8Z"/><glyph unicode="à" horiz-adv-x="1102" d="M985 0H686V147H682Q579 -25 377 -25Q228 -25 143 59T57 285Q57 583 410 629L688 666Q688 834 506 834Q323 834 158 725V963Q224 997 338 1023T547 1049Q985 1049 985 612V0ZM688 416V485L502 461Q348 441 348 322Q348 268 385 234T487 199Q576 199 632 260T688 416ZM775 1186H548L234 1509H515L775 1186Z"/><glyph unicode="á" horiz-adv-x="1102" d="M985 0H686V147H682Q579 -25 377 -25Q228 -25 143 59T57 285Q57 583 410 629L688 666Q688 834 506 834Q323 834 158 725V963Q224 997 338 1023T547 1049Q985 1049 985 612V0ZM688 416V485L502 461Q348 441 348 322Q348 268 385 234T487 199Q576 199 632 260T688 416ZM891 1509L578 1186H350L610 1509H891Z"/><glyph unicode="â" horiz-adv-x="1102" d="M985 0H686V147H682Q579 -25 377 -25Q228 -25 143 59T57 285Q57 583 410 629L688 666Q688 834 506 834Q323 834 158 725V963Q224 997 338 1023T547 1049Q985 1049 985 612V0ZM688 416V485L502 461Q348 441 348 322Q348 268 385 234T487 199Q576 199 632 260T688 416ZM914 1186H707L549 1374L402 1186H195L430 1511H678L914 1186Z"/><glyph unicode="ã" horiz-adv-x="1102" d="M985 0H686V147H682Q579 -25 377 -25Q228 -25 143 59T57 285Q57 583 410 629L688 666Q688 834 506 834Q323 834 158 725V963Q224 997 338 1023T547 1049Q985 1049 985 612V0ZM688 416V485L502 461Q348 441 348 322Q348 268 385 234T487 199Q576 199 632 260T688 416ZM907 1497Q907 1357 852 1281T700 1204Q614 1204 532 1247Q443 1294 409 1294Q329 1294 329 1186H188Q188 1325 243 1402T397 1479Q478 1479 565 1430Q644 1386 685 1386Q763 1386 763 1497H907Z"/><glyph unicode="ä" horiz-adv-x="1102" d="M985 0H686V147H682Q579 -25 377 -25Q228 -25 143 59T57 285Q57 583 410 629L688 666Q688 834 506 834Q323 834 158 725V963Q224 997 338 1023T547 1049Q985 1049 985 612V0ZM688 416V485L502 461Q348 441 348 322Q348 268 385 234T487 199Q576 199 632 260T688 416ZM787 1186Q720 1186 677 1225T634 1323Q634 1384 677 1422T787 1460Q854 1460 897 1422T941 1323Q941 1263 898 1225T787 1186ZM329 1186Q261 1186 218 1225T175 1323Q175 1383 219 1421T329 1460Q397 1460 439 1422T482 1323Q482 1262 440 1224T329 1186Z"/><glyph unicode="å" horiz-adv-x="1102" d="M985 0H686V147H682Q579 -25 377 -25Q228 -25 143 59T57 285Q57 583 410 629L688 666Q688 834 506 834Q323 834 158 725V963Q224 997 338 1023T547 1049Q985 1049 985 612V0ZM688 416V485L502 461Q348 441 348 322Q348 268 385 234T487 199Q576 199 632 260T688 416ZM573 1186Q471 1186 405 1245T338 1401Q338 1502 407 1562T578 1622Q685 1622 751 1563T817 1407Q817 1309 746 1248T573 1186ZM573 1499Q477 1499 477 1405Q477 1311 573 1311Q618 1311 647 1338T676 1405Q676 1446 648 1472T573 1499Z"/><glyph unicode="æ" horiz-adv-x="1696" d="M1640 422H973Q993 199 1255 199Q1415 199 1552 279V53Q1396 -25 1174 -25Q905 -25 776 154H772Q631 -25 410 -25Q244 -25 151 57T57 287Q57 433 153 521T430 623L686 643Q686 834 502 834Q328 834 158 727V963Q345 1049 528 1049Q762 1049 852 915H856Q988 1049 1182 1049Q1396 1049 1518 916T1640 551V422ZM1348 616Q1348 836 1171 836Q1096 836 1040 774T973 616H1348ZM686 414V459L530 446Q346 431 346 315Q346 265 385 232T487 199Q573 199 629 258T686 414Z"/><glyph unicode="ç" horiz-adv-x="983" d="M909 37Q802 -25 600 -25Q364 -25 218 118T72 487Q72 748 228 898T647 1049Q828 1049 909 1001V733Q810 807 688 807Q552 807 473 728T393 508Q393 372 469 295T678 217Q796 217 909 291V37ZM426 -451V-313Q461 -319 498 -319Q621 -319 621 -246Q621 -180 510 -180Q497 -180 473 -182V0H645V-82Q832 -90 832 -248Q832 -455 514 -455Q468 -455 426 -451Z"/><glyph unicode="è" horiz-adv-x="1108" d="M1053 422H385Q401 199 666 199Q835 199 963 279V51Q821 -25 594 -25Q346 -25 209 112T72 496Q72 751 220 900T584 1049Q808 1049 930 916T1053 555V422ZM760 616Q760 836 582 836Q506 836 451 773T383 616H760ZM795 1186H568L254 1509H535L795 1186Z"/><glyph unicode="é" horiz-adv-x="1108" d="M1053 422H385Q401 199 666 199Q835 199 963 279V51Q821 -25 594 -25Q346 -25 209 112T72 496Q72 751 220 900T584 1049Q808 1049 930 916T1053 555V422ZM760 616Q760 836 582 836Q506 836 451 773T383 616H760ZM921 1509L608 1186H380L640 1509H921Z"/><glyph unicode="ê" horiz-adv-x="1108" d="M1053 422H385Q401 199 666 199Q835 199 963 279V51Q821 -25 594 -25Q346 -25 209 112T72 496Q72 751 220 900T584 1049Q808 1049 930 916T1053 555V422ZM760 616Q760 836 582 836Q506 836 451 773T383 616H760ZM949 1186H742L584 1374L437 1186H230L465 1511H713L949 1186Z"/><glyph unicode="ë" horiz-adv-x="1108" d="M1053 422H385Q401 199 666 199Q835 199 963 279V51Q821 -25 594 -25Q346 -25 209 112T72 496Q72 751 220 900T584 1049Q808 1049 930 916T1053 555V422ZM760 616Q760 836 582 836Q506 836 451 773T383 616H760ZM808 1186Q741 1186 698 1225T655 1323Q655 1384 698 1422T808 1460Q875 1460 918 1422T962 1323Q962 1263 919 1225T808 1186ZM350 1186Q282 1186 239 1225T196 1323Q196 1383 240 1421T350 1460Q418 1460 460 1422T503 1323Q503 1262 461 1224T350 1186Z"/><glyph unicode="ì" horiz-adv-x="582" d="M449 0H133V1024H449V0ZM770 1186H543L229 1509H510L770 1186Z"/><glyph unicode="í" horiz-adv-x="582" d="M449 0H133V1024H449V0ZM612 1509L299 1186H71L331 1509H612Z"/><glyph unicode="î" horiz-adv-x="582" d="M449 0H133V1024H449V0ZM913 1186H706L548 1374L401 1186H194L429 1511H677L913 1186Z"/><glyph unicode="ï" horiz-adv-x="582" d="M449 0H133V1024H449V0ZM526 1186Q459 1186 416 1225T373 1323Q373 1384 416 1422T526 1460Q593 1460 636 1422T680 1323Q680 1263 637 1225T526 1186ZM68 1186Q0 1186 -43 1225T-86 1323Q-86 1383 -42 1421T68 1460Q136 1460 178 1422T221 1323Q221 1262 179 1224T68 1186Z"/><glyph unicode="ð" horiz-adv-x="1215" d="M756 965L760 967Q676 1114 565 1204L274 1061L193 1202L434 1317Q277 1442 164 1516H516Q527 1510 647 1419L920 1552L997 1415L782 1311Q1143 1020 1143 563Q1143 303 993 139T598 -25Q350 -25 211 119T72 514Q72 745 204 892T551 1040Q668 1040 756 965ZM612 807Q509 807 451 729T393 514Q393 374 450 296T608 217Q706 217 763 298T821 520Q821 807 612 807Z"/><glyph unicode="ñ" horiz-adv-x="1239" d="M1122 0H807V569Q807 807 637 807Q555 807 502 744T449 584V0H133V1024H449V862H453Q566 1049 782 1049Q1122 1049 1122 627V0ZM982 1497Q982 1357 927 1281T775 1204Q689 1204 607 1247Q518 1294 484 1294Q404 1294 404 1186H263Q263 1325 318 1402T472 1479Q553 1479 640 1430Q719 1386 760 1386Q838 1386 838 1497H982Z"/><glyph unicode="ò" horiz-adv-x="1251" d="M621 -25Q365 -25 219 118T72 508Q72 762 224 905T635 1049Q890 1049 1035 906T1180 526Q1180 271 1031 123T621 -25ZM629 807Q517 807 455 730T393 512Q393 217 631 217Q858 217 858 520Q858 807 629 807ZM852 1186H625L311 1509H592L852 1186Z"/><glyph unicode="ó" horiz-adv-x="1251" d="M621 -25Q365 -25 219 118T72 508Q72 762 224 905T635 1049Q890 1049 1035 906T1180 526Q1180 271 1031 123T621 -25ZM629 807Q517 807 455 730T393 512Q393 217 631 217Q858 217 858 520Q858 807 629 807ZM968 1509L655 1186H427L687 1509H968Z"/><glyph unicode="ô" horiz-adv-x="1251" d="M621 -25Q365 -25 219 118T72 508Q72 762 224 905T635 1049Q890 1049 1035 906T1180 526Q1180 271 1031 123T621 -25ZM629 807Q517 807 455 730T393 512Q393 217 631 217Q858 217 858 520Q858 807 629 807ZM988 1186H781L623 1374L476 1186H269L504 1511H752L988 1186Z"/><glyph unicode="õ" horiz-adv-x="1251" d="M621 -25Q365 -25 219 118T72 508Q72 762 224 905T635 1049Q890 1049 1035 906T1180 526Q1180 271 1031 123T621 -25ZM629 807Q517 807 455 730T393 512Q393 217 631 217Q858 217 858 520Q858 807 629 807ZM985 1497Q985 1357 930 1281T778 1204Q692 1204 610 1247Q521 1294 487 1294Q407 1294 407 1186H266Q266 1325 321 1402T475 1479Q556 1479 643 1430Q722 1386 763 1386Q841 1386 841 1497H985Z"/><glyph unicode="ö" horiz-adv-x="1251" d="M621 -25Q365 -25 219 118T72 508Q72 762 224 905T635 1049Q890 1049 1035 906T1180 526Q1180 271 1031 123T621 -25ZM629 807Q517 807 455 730T393 512Q393 217 631 217Q858 217 858 520Q858 807 629 807ZM859 1186Q792 1186 749 1225T706 1323Q706 1384 749 1422T859 1460Q926 1460 969 1422T1013 1323Q1013 1263 970 1225T859 1186ZM401 1186Q333 1186 290 1225T247 1323Q247 1383 291 1421T401 1460Q469 1460 511 1422T554 1323Q554 1262 512 1224T401 1186Z"/><glyph unicode="÷" horiz-adv-x="1448" d="M731 846Q672 846 631 886T590 983Q590 1045 629 1086T731 1128Q793 1128 830 1088T868 985Q868 924 828 885T731 846ZM1212 485H238V688H1212V485ZM727 47Q668 47 627 86T586 182Q586 244 625 286T727 328Q789 328 826 288T864 184Q864 123 824 85T727 47Z"/><glyph unicode="ø" horiz-adv-x="1252" d="M1206 1010L1067 864Q1180 721 1180 526Q1180 267 1032 122T621 -23Q423 -23 293 63L158 -78L39 29L176 172Q72 313 72 510Q72 763 224 907T637 1051Q816 1051 948 969L1087 1116L1206 1010ZM772 791Q716 831 631 831Q373 831 373 514Q373 441 391 393L772 791ZM862 651L469 242Q530 197 629 197Q881 197 881 520Q881 594 862 651Z"/><glyph unicode="ù" horiz-adv-x="1239" d="M1106 0H791V156H786Q669 -25 473 -25Q117 -25 117 406V1024H432V434Q432 217 604 217Q689 217 740 276T791 438V1024H1106V0ZM784 1186H557L243 1509H524L784 1186Z"/><glyph unicode="ú" horiz-adv-x="1239" d="M1106 0H791V156H786Q669 -25 473 -25Q117 -25 117 406V1024H432V434Q432 217 604 217Q689 217 740 276T791 438V1024H1106V0ZM977 1509L664 1186H436L696 1509H977Z"/><glyph unicode="û" horiz-adv-x="1239" d="M1106 0H791V156H786Q669 -25 473 -25Q117 -25 117 406V1024H432V434Q432 217 604 217Q689 217 740 276T791 438V1024H1106V0ZM970 1186H763L605 1374L458 1186H251L486 1511H734L970 1186Z"/><glyph unicode="ü" horiz-adv-x="1239" d="M1106 0H791V156H786Q669 -25 473 -25Q117 -25 117 406V1024H432V434Q432 217 604 217Q689 217 740 276T791 438V1024H1106V0ZM844 1186Q777 1186 734 1225T691 1323Q691 1384 734 1422T844 1460Q911 1460 954 1422T998 1323Q998 1263 955 1225T844 1186ZM386 1186Q318 1186 275 1225T232 1323Q232 1383 276 1421T386 1460Q454 1460 496 1422T539 1323Q539 1262 497 1224T386 1186Z"/><glyph unicode="ý" horiz-adv-x="1102" d="M1108 1024L692 -82Q542 -481 240 -481Q125 -481 51 -455V-203Q114 -240 188 -240Q310 -240 358 -125L412 2L-4 1024H346L537 401Q555 343 565 264H569Q578 322 602 399L795 1024H1108ZM834 1509L521 1186H293L553 1509H834Z"/><glyph unicode="þ" horiz-adv-x="1270" d="M453 119H449V-471H133V1516H449V870H453Q570 1049 782 1049Q981 1049 1089 913T1198 541Q1198 285 1072 130T735 -25Q550 -25 453 119ZM444 539V457Q444 351 500 284T647 217Q755 217 814 300T874 537Q874 807 664 807Q567 807 506 734T444 539Z"/><glyph unicode="ÿ" horiz-adv-x="1102" d="M1108 1024L692 -82Q542 -481 240 -481Q125 -481 51 -455V-203Q114 -240 188 -240Q310 -240 358 -125L412 2L-4 1024H346L537 401Q555 343 565 264H569Q578 322 602 399L795 1024H1108ZM793 1186Q726 1186 683 1225T640 1323Q640 1384 683 1422T793 1460Q860 1460 903 1422T947 1323Q947 1263 904 1225T793 1186ZM335 1186Q267 1186 224 1225T181 1323Q181 1383 225 1421T335 1460Q403 1460 445 1422T488 1323Q488 1262 446 1224T335 1186Z"/><glyph unicode="ı" horiz-adv-x="582" d="M449 0H133V1024H449V0Z"/><glyph unicode="Œ" horiz-adv-x="1925" d="M1860 0H1032Q1006 0 915 -12Q825 -25 758 -25Q451 -25 263 178T74 698Q74 1040 268 1249T784 1458Q847 1458 935 1446Q1024 1434 1044 1434H1827V1171H1323V848H1792V584H1323V262H1860V0ZM991 305V1128Q905 1180 782 1180Q614 1180 515 1051T416 711Q416 503 517 379T778 254Q894 254 991 305Z"/><glyph unicode="œ" horiz-adv-x="1893" d="M1837 422H1167Q1181 199 1450 199Q1617 199 1745 279V51Q1603 -25 1399 -25Q1147 -25 1008 164H1004Q867 -23 596 -23Q362 -23 217 120T72 508Q72 759 219 905T608 1051Q742 1051 846 1002T1001 874H1006Q1124 1049 1382 1049Q1595 1049 1716 915T1837 557V422ZM1542 616Q1542 836 1368 836Q1288 836 1233 773T1167 616H1542ZM631 807Q518 807 456 730T393 512Q393 219 629 219Q858 219 858 516Q858 654 799 730T631 807Z"/><glyph unicode="Š" horiz-adv-x="1148" d="M98 55V375Q185 302 287 266T493 229Q554 229 599 240T675 270T721 316T736 374Q736 416 712 449T647 510T548 564T425 617Q257 687 175 788T92 1032Q92 1144 137 1224T259 1357T439 1433T655 1458Q767 1458 853 1445T1013 1403V1104Q977 1129 935 1148T847 1179T758 1198T673 1204Q618 1204 573 1194T497 1164T449 1119T432 1059Q432 1023 451 995T505 941T590 891T703 840Q789 804 857 764T975 672T1050 556T1076 403Q1076 283 1031 202T907 70T726 -3T507 -25Q389 -25 283 -5T98 55ZM973 1861L735 1536H487L252 1861H457L612 1673L768 1861H973Z"/><glyph unicode="š" horiz-adv-x="901" d="M66 27V283Q144 236 221 213T368 190Q452 190 500 213T549 283Q549 313 527 333T471 368T395 395T316 422Q255 445 209 471T131 533T83 614T66 723Q66 809 103 871T203 972T346 1030T514 1049Q582 1049 652 1039T790 1008V764Q730 799 662 816T527 834Q496 834 469 829T420 813T387 786T375 748Q375 720 393 700T440 666T504 640T575 616Q638 594 689 568T776 507T832 425T852 313Q852 222 813 158T708 53T557 -6T379 -25Q210 -25 66 27ZM811 1511L573 1186H325L90 1511H295L450 1323L606 1511H811Z"/><glyph unicode="Ÿ" horiz-adv-x="1243" d="M1245 1434L778 510V0H455V504L0 1434H369L600 899Q606 884 633 782H637Q650 854 668 895L903 1434H1245ZM858 1567Q791 1567 748 1606T705 1704Q705 1765 748 1803T858 1841Q925 1841 968 1803T1012 1704Q1012 1644 969 1606T858 1567ZM400 1567Q332 1567 289 1606T246 1704Q246 1764 290 1802T400 1841Q468 1841 510 1803T553 1704Q553 1643 511 1605T400 1567Z"/><glyph unicode="Ž" horiz-adv-x="1243" d="M1196 0H41V186L776 1171H94V1434H1194V1253L475 262H1196V0ZM990 1858L752 1533H504L269 1858H474L629 1670L785 1858H990Z"/><glyph unicode="ž" horiz-adv-x="981" d="M944 0H25V131L539 791H76V1024H940V868L453 233H944V0ZM872 1511L634 1186H386L151 1511H356L511 1323L667 1511H872Z"/><glyph unicode="ƒ" horiz-adv-x="1178" d="M1044 1174Q980 1204 911 1204Q787 1204 764 1067L741 930H899V715H707L616 121Q586 -75 476 -190T199 -305Q149 -305 78 -285V-43Q117 -63 170 -63Q293 -63 324 139L412 715H307V930H449L471 1079Q496 1246 606 1346T885 1446Q967 1446 1044 1423V1174Z"/><glyph unicode="ȷ" horiz-adv-x="582" d="M449 18Q449 -209 338 -345T18 -481Q-51 -481 -133 -451V-203Q-67 -240 -16 -240Q133 -240 133 -6V1024H449V18Z"/><glyph unicode="ˆ" horiz-adv-x="785" d="M750 1186H543L385 1374L238 1186H31L266 1511H514L750 1186Z"/><glyph unicode="ˇ" horiz-adv-x="785" d="M754 1511L516 1186H268L33 1511H238L393 1323L549 1511H754Z"/><glyph unicode="˙" horiz-adv-x="518" d="M260 1186Q193 1186 150 1226T106 1323Q106 1383 150 1420T260 1458Q327 1458 369 1420T412 1323Q412 1264 370 1225T260 1186Z"/><glyph unicode="˚" horiz-adv-x="555" d="M274 1186Q172 1186 106 1245T39 1401Q39 1502 108 1562T279 1622Q386 1622 452 1563T518 1407Q518 1309 447 1248T274 1186ZM274 1499Q178 1499 178 1405Q178 1311 274 1311Q319 1311 348 1338T377 1405Q377 1446 349 1472T274 1499Z"/><glyph unicode="˜" horiz-adv-x="785" d="M754 1497Q754 1357 699 1281T547 1204Q461 1204 379 1247Q290 1294 256 1294Q176 1294 176 1186H35Q35 1325 90 1402T244 1479Q325 1479 412 1430Q491 1386 532 1386Q610 1386 610 1497H754Z"/><glyph unicode="‐" horiz-adv-x="828" d="M690 436H143V657H690V436Z"/><glyph unicode="–" horiz-adv-x="1024" d="M1024 436H0V657H1024V436Z"/><glyph unicode="—" horiz-adv-x="2048" d="M2048 436H0V657H2048V436Z"/><glyph unicode="‘" horiz-adv-x="594" d="M481 1468L371 1024H96L285 1468H481Z"/><glyph unicode="’" horiz-adv-x="594" d="M500 1468L307 1024H113L227 1468H500Z"/><glyph unicode="‚" horiz-adv-x="594" d="M477 219L285 -225H90L205 219H477Z"/><glyph unicode="“" horiz-adv-x="1010" d="M897 1468L784 1024H512L702 1468H897ZM481 1468L371 1024H96L285 1468H481Z"/><glyph unicode="”" horiz-adv-x="1010" d="M915 1468L725 1024H528L641 1468H915ZM500 1468L307 1024H113L227 1468H500Z"/><glyph unicode="„" horiz-adv-x="1010" d="M893 219L700 -225H506L618 219H893ZM477 219L285 -225H90L205 219H477Z"/><glyph unicode="†" horiz-adv-x="832" d="M798 868L525 898L480 202H351L306 898L33 868V1094L326 1064L296 1434H535L505 1064L798 1094V868Z"/><glyph unicode="‡" horiz-adv-x="832" d="M798 482L500 512L535 202H296L331 512L33 482V708L301 678L334 818L301 958L33 928V1154L331 1124L296 1434H535L500 1124L798 1154V928L530 958L497 818L530 678L798 708V482Z"/><glyph unicode="•" horiz-adv-x="865" d="M434 281Q321 281 241 362T160 557Q160 671 240 751T434 831Q548 831 629 751T711 557Q711 444 630 363T434 281Z"/><glyph unicode="…" horiz-adv-x="1868" d="M1554 -23Q1476 -23 1424 25T1372 143Q1372 215 1424 261T1556 307Q1637 307 1689 261T1741 143Q1741 70 1690 24T1554 -23ZM932 -23Q854 -23 803 25T752 143Q752 215 803 261T934 307Q1015 307 1066 261T1118 143Q1118 70 1067 24T932 -23ZM309 -23Q231 -23 180 25T129 143Q129 215 180 261T311 307Q392 307 444 261T496 143Q496 70 445 24T309 -23Z"/><glyph unicode="‰" horiz-adv-x="2573" d="M430 707Q277 707 184 804T90 1065Q90 1244 189 1349T455 1454Q614 1454 703 1359T793 1092Q793 915 694 811T430 707ZM449 1278Q303 1278 303 1075Q303 883 442 883Q584 883 584 1083Q584 1278 449 1278ZM1477 1434L543 0H299L1233 1434H1477ZM2118 -20Q1965 -20 1872 77T1778 338Q1778 517 1877 622T2142 727Q2303 727 2392 633T2482 367Q2482 190 2383 85T2118 -20ZM2136 551Q1991 551 1991 348Q1991 156 2130 156Q2273 156 2273 356Q2273 449 2235 500T2136 551ZM1323 -20Q1170 -20 1077 77T983 338Q983 517 1082 622T1348 727Q1508 727 1597 633T1686 367Q1686 190 1587 85T1323 -20ZM1339 551Q1194 551 1194 348Q1194 156 1335 156Q1477 156 1477 356Q1477 449 1439 500T1339 551Z"/><glyph unicode="‹" horiz-adv-x="705" d="M651 201H383L53 537L383 881H651L317 537L651 201Z"/><glyph unicode="›" horiz-adv-x="705" d="M651 537L322 201H53L387 537L55 881H322L651 537Z"/><glyph unicode="⁄" horiz-adv-x="719" d="M932 1434L41 0H-203L688 1434H932Z"/><glyph unicode="⁰" horiz-adv-x="828" d="M409 863Q98 863 98 1295Q98 1521 181 1637T426 1754Q729 1754 729 1315Q729 1096 646 980Q564 863 409 863ZM418 1609Q298 1609 298 1299Q298 1007 415 1007Q530 1007 530 1309Q530 1609 418 1609Z"/><glyph unicode="ⁱ" horiz-adv-x="582" d="M215 1550Q160 1550 126 1582T92 1662Q92 1711 126 1741T215 1772Q271 1772 304 1742T338 1662Q338 1612 305 1581T215 1550ZM320 717H107V1436H320V717Z"/><glyph unicode="⁴" horiz-adv-x="856" d="M786 1060H676V884H463V1060H68V1201L418 1734H676V1215H786V1060ZM467 1562H459Q445 1526 420 1486L252 1215H463V1478Q463 1525 467 1562Z"/><glyph unicode="⁵" horiz-adv-x="828" d="M134 902V1085Q236 1024 332 1024Q481 1024 481 1144Q481 1259 311 1259Q253 1259 158 1247V1736H655V1564H341V1419Q380 1422 402 1422Q539 1422 617 1351T695 1161Q695 1030 603 947T353 863Q225 863 134 902Z"/><glyph unicode="⁶" horiz-adv-x="828" d="M654 1730V1580Q624 1594 583 1601T504 1609Q401 1609 348 1545T293 1336H297Q326 1384 378 1411T488 1438Q545 1438 589 1420T664 1368T711 1286T728 1177Q728 1112 706 1055T642 955T545 888T420 863Q344 863 284 890T183 968T119 1093T97 1262Q97 1373 124 1463T203 1617T326 1716T489 1751Q539 1751 582 1746T654 1730ZM417 1316Q365 1316 334 1276T303 1174Q303 1140 311 1110T334 1057T370 1021T419 1007Q445 1007 465 1018T500 1051T523 1101T531 1164Q531 1316 417 1316Z"/><glyph unicode="⁷" horiz-adv-x="807" d="M708 1636L401 884H179L485 1562H89V1734H708V1636Z"/><glyph unicode="⁸" horiz-adv-x="828" d="M255 1326Q120 1390 120 1519Q120 1621 202 1687T414 1753Q546 1753 625 1691T704 1531Q704 1396 556 1328Q725 1268 725 1113Q725 997 637 930T395 863Q261 863 178 928T94 1103Q94 1252 255 1326ZM505 1516Q505 1600 414 1600Q374 1600 347 1577T319 1515Q319 1451 412 1413Q505 1452 505 1516ZM404 1241Q294 1197 294 1112Q294 1071 327 1044T410 1017Q526 1017 526 1113Q526 1199 404 1241Z"/><glyph unicode="⁹" horiz-adv-x="828" d="M353 863Q295 863 242 870T151 894V1050Q166 1041 187 1033T233 1018T282 1009T331 1005Q429 1005 480 1070T532 1278H529Q470 1176 342 1176Q289 1176 244 1196T167 1252T116 1337T97 1446Q97 1516 120 1572T185 1668T285 1729T412 1751Q484 1751 542 1725T642 1647T705 1521T728 1350Q728 1236 703 1146T629 992T512 896T353 863ZM405 1607Q380 1607 359 1596T323 1564T300 1515T291 1451Q291 1379 322 1339T409 1298Q435 1298 455 1309T491 1338T514 1382T522 1435Q522 1471 514 1502T490 1557T453 1593T405 1607Z"/><glyph unicode="ⁿ" horiz-adv-x="912" d="M803 717H590V1159Q590 1298 477 1298Q416 1298 369 1251T322 1145V717H109V1436H317V1337Q391 1454 545 1454Q803 1454 803 1171V717Z"/><glyph unicode="₀" horiz-adv-x="828" d="M409 -263Q98 -263 98 169Q98 395 181 511T426 628Q729 628 729 189Q729 -30 646 -146Q564 -263 409 -263ZM418 483Q298 483 298 173Q298 -119 415 -119Q530 -119 530 183Q530 483 418 483Z"/><glyph unicode="₁" horiz-adv-x="807" d="M721 -242H158V-70H334V407L143 366V546L549 628V-70H721V-242Z"/><glyph unicode="₂" horiz-adv-x="828" d="M721 -242H117V-85L365 149Q442 222 460 259T479 341Q479 383 451 410T375 438Q277 438 164 335V550Q282 628 414 628Q550 628 629 560T709 370Q709 300 672 229T492 32L387 -60V-64H721V-242Z"/><glyph unicode="₃" horiz-adv-x="828" d="M131 -210V-29Q238 -97 352 -97Q502 -97 502 5Q502 108 330 108H213V274H326Q475 274 475 370Q475 460 356 460Q249 460 158 395V571Q257 628 397 628Q531 628 608 568T686 407Q686 260 543 212V208Q715 167 715 10Q715 -113 617 -188T360 -263Q227 -263 131 -210Z"/><glyph unicode="₄" horiz-adv-x="856" d="M786 -66H676V-242H463V-66H68V75L418 608H676V89H786V-66ZM467 436H459Q445 400 420 360L252 89H463V352Q463 399 467 436Z"/><glyph unicode="₅" horiz-adv-x="828" d="M134 -224V-41Q236 -102 332 -102Q481 -102 481 18Q481 133 311 133Q253 133 158 121V610H655V438H341V293Q380 296 402 296Q539 296 617 225T695 35Q695 -96 603 -179T353 -263Q225 -263 134 -224Z"/><glyph unicode="₆" horiz-adv-x="828" d="M654 604V454Q624 468 583 475T504 483Q401 483 348 419T293 210H297Q326 258 378 285T488 312Q545 312 589 294T664 242T711 160T728 51Q728 -14 706 -71T642 -171T545 -238T420 -263Q344 -263 284 -236T183 -158T119 -33T97 136Q97 247 124 337T203 491T326 590T489 625Q539 625 582 620T654 604ZM417 190Q365 190 334 150T303 48Q303 14 311 -16T334 -69T370 -105T419 -119Q445 -119 465 -108T500 -75T523 -25T531 38Q531 190 417 190Z"/><glyph unicode="₇" horiz-adv-x="807" d="M708 510L401 -242H179L485 436H89V608H708V510Z"/><glyph unicode="₈" horiz-adv-x="828" d="M255 200Q120 264 120 393Q120 495 202 561T414 627Q546 627 625 565T704 405Q704 270 556 202Q725 142 725 -13Q725 -129 637 -196T395 -263Q261 -263 178 -198T94 -23Q94 126 255 200ZM505 390Q505 474 414 474Q374 474 347 451T319 389Q319 325 412 287Q505 326 505 390ZM404 115Q294 71 294 -14Q294 -55 327 -82T410 -109Q526 -109 526 -13Q526 73 404 115Z"/><glyph unicode="₉" horiz-adv-x="828" d="M353 -263Q295 -263 242 -256T151 -232V-76Q166 -85 187 -93T233 -108T282 -117T331 -121Q429 -121 480 -56T532 152H529Q470 50 342 50Q289 50 244 70T167 126T116 211T97 320Q97 390 120 446T185 542T285 603T412 625Q484 625 542 599T642 521T705 395T728 224Q728 110 703 20T629 -134T512 -230T353 -263ZM405 481Q380 481 359 470T323 438T300 389T291 325Q291 253 322 213T409 172Q435 172 455 183T491 212T514 256T522 309Q522 345 514 376T490 431T453 467T405 481Z"/><glyph unicode="€" horiz-adv-x="1178" d="M1094 45Q976 -27 786 -27Q561 -27 419 97T231 453H109V643H205Q203 668 203 702Q203 720 207 784H109V971H236Q291 1202 444 1330T825 1458Q992 1458 1094 1403V1143Q982 1231 840 1231Q730 1231 647 1160T528 971H954V784H498Q494 725 494 702Q494 675 496 643H954V453H526Q601 201 825 201Q966 201 1094 291V45Z"/><glyph unicode="™" horiz-adv-x="1579" d="M1395 772H1245V1217H1241L1081 772H946L801 1217H795V772H647V1434H864L1020 981H1024L1192 1434H1395V772ZM582 1311H403V772H248V1311H76V1434H582V1311Z"/><glyph unicode="∕" horiz-adv-x="719" d="M932 1434L41 0H-203L688 1434H932Z"/><glyph unicode="∙" horiz-adv-x="555" d="M274 487Q196 487 144 535T92 653Q92 725 145 771T279 817Q360 817 411 771T463 653Q463 580 411 534T274 487Z"/><glyph unicode="ﬀ" horiz-adv-x="1488" d="M1504 1274Q1442 1298 1387 1298Q1235 1298 1235 1133V1024H1469V791H1235V0H920V791H535V0H220V791H48V1024H220V1121Q220 1208 249 1280T334 1403T467 1482T644 1510Q738 1510 804 1490V1244Q742 1268 687 1268Q535 1268 535 1103V1024H920V1151Q920 1238 949 1310T1034 1433T1167 1512T1344 1540Q1438 1540 1504 1520V1274Z"/><glyph unicode="ﬃ" horiz-adv-x="2073" d="M1940 0H1625V791H1237V0H920V791H535V0H220V791H48V1024H220V1121Q220 1208 249 1280T334 1403T467 1482T644 1510Q738 1510 804 1490V1244Q742 1268 687 1268Q535 1268 535 1103V1024H920V1031Q920 1174 962 1271T1084 1428T1282 1514T1550 1540Q1644 1540 1716 1530T1823 1511V1256Q1777 1270 1709 1282T1537 1294Q1382 1294 1310 1234T1238 1033V1024H1940V0Z"/><glyph unicode="ﬄ" horiz-adv-x="2073" d="M1237 0H920V791H535V0H220V791H48V1024H220V1121Q220 1208 249 1280T334 1403T467 1482T644 1510Q738 1510 804 1490V1244Q742 1268 687 1268Q535 1268 535 1103V1024H920V1031Q920 1174 962 1271T1084 1428T1282 1514T1550 1540Q1590 1540 1642 1537T1748 1529T1852 1518T1940 1507V0H1625V1288Q1605 1290 1582 1292T1528 1294Q1454 1294 1400 1280T1309 1234T1255 1153T1237 1033V1024H1470V791H1237V0Z"/><glyph unicode="﴾" horiz-adv-x="756" d="M739 -326H481Q158 30 158 549Q158 1050 481 1434H737Q434 1032 434 549Q434 66 739 -326Z"/><glyph unicode="﴿" horiz-adv-x="756" d="M274 -326H18Q324 64 324 549Q324 1030 18 1434H276Q600 1049 600 549Q600 34 274 -326Z"/></font>
</defs>
</svg>
